Правила форума

  • В этом разделе создание новых тем Запрещено.
  • Для создания новых тем пользуйтесь Корневым разделом DVD и HD фильмы.
Начать новую темуОтветить на тему  [ Сообщений: 2 ] 
Торрент файл
Размер: 4.68 GB • Зарегистрирован: 5 лет 7 месяцев • Статус: Проверено
Скачан: 58 раз • Желающих скачать: 0 • Поблагодарили: 10 раз
 Раздают: 0  |  0 KB/s  ]   Качают: 0  |  0 KB/s  ] 
 Полного источника не было 3 года 1 месяц 
Сообщения
 Добавлено: 2011-04-30 11:12
Top-seeder
Аватара пользователя
Стаж: 9 лет
Сообщений: 1399
Спасибок: 28651
Лайков: 8
Бешеные псы / Reservoir Dogs

Изображение


Год выпуска: 1992
Страна: США
Жанр: Криминальная драма
Продолжительность: 99 мин
Перевод: Профессиональный (Гоблинa)

Режиссёр: Квентин Тарантино
В ролях: Харви Кейтел, Тим Рот, Майл Мэдсен, Крис Пенн, Стив Бушеми, Квентин Тарантино, Лоурэнс Тирни, Рэнди Брукс
Описание: Идея сценария криминальной драмы, где все действие происходит не до ограбления, не во время него, а уже после, когда главные герои собираются на некоем заброшенном складе, появилась у Квентина Тарантино еще во времена, когда он работал служащим в видеопрокате. Тогда он постоянно пересматривал старые фильмы об ограблениях и пришел к выводу, что в этот жанр давно пора влить свежую кровь. Неинтересно, решил Тарантино, во всех фильмах наблюдать за тщательной подготовкой к грабежу, а потом, до крови обкусывая ногти пальцев на руках, следить за тем, как что-нибудь в самый последний момент преступникам все испортит. "Какого черта какая-нибудь гребаная маленькая случайность всегда мешает этим парням?" - возмущался Тарантино и решил для себя, что уж в его-то сценарии никакая случайность ничему не помешает... Он ошибался. Потому что без случайностей - не интересно. Даже в новой манере повествования Тарантино - когда само ограбление не показывается - эти случайности парням основательно испортят всю малину. Прямо-таки подгадят всю малину эти случайности, и даже сам Квентин ничего с этим сделать не смог...

Изначально эпизод с парнями-грабителями на складе Квентин намеревался включить в один из своих новых сценариев, где три криминальные истории должны были слиться в одну. Рабочее название этого сценария было "Криминальное чтиво". Однако довольно быстро Тарантино посчитал, что этот сюжет заслуживает отдельного воплощения, поэтому решил начать с него. Изначально сценарий не назывался "Бешеные псы". Это название Квентин дал значительно позже, когда уже собралась вся актерская команда. А сначала все было так...
Изображение 8.232 Top: №98 

Качество: BDRip, 720p
Формат: MKV
Видео кодек: H264 (AVC)
Аудио кодек: AC3 (Dolby Digital)
Видео: 1280x544; 5617 kbps; 23.976 fps
Аудио #1: Russian AC3 5.1 (448 kbps) (Гоблин), English AC3 5.1 (640 kbps) [Профессиональный (Гоблинa)]
Скриншоты
Изображение
Изображение
Изображение
Изображение
Изображение
Изображение
Свернуть


MediaInfo
Общее
Уникальный идентификатор : 186712673456012983713592517168676704646 (0x8C778D899476402889B26A43DC2F9186)
Полное имя : D:\Закачки\Бешеные псы.mkv
Формат : Matroska
Размер файла : 4,68 Гбайт
Продолжительность : 1 ч. 39 м.
Общий поток : 6763 Кбит/сек
Дата кодирования : UTC 2008-07-02 21:54:04
Программа кодирования : mkvmerge v2.1.0 ('Another Place To Fall') built on Aug 19 2007 13:40:07
Библиотека кодирования : libebml v0.7.7 + libmatroska v0.8.1

Видео
Идентификатор : 1
Формат : AVC
Формат/Информация : Advanced Video Codec
Профиль формата : High@L5.1
Параметр CABAC формата : Да
Параметр ReFrames формата : 8 кадров
Идентификатор кодека : V_MPEG4/ISO/AVC
Продолжительность : 1 ч. 39 м.
Битрейт : 5671 Кбит/сек
Ширина : 1280 пикс.
Высота : 544 пикс.
Соотношение сторон : 2,35:1
Частота кадров : 23,976 кадр/сек
Цветовое пространство : YUV
Подвыборка цветности : 4:2:0
Битовая глубина : 8 бит
Тип развёртки : Прогрессивная
Бит/(Пиксели*Кадры) : 0.340
Размер потока : 3,84 Гбайт (82%)
Библиотека кодирования : x264 core 54 svn-614
Настройки программы : cabac=1 / ref=5 / deblock=1:-3:-3 / analyse=0x3:0x133 / me=umh / subme=7 / brdo=1 / mixed_ref=1 / me_range=16 / chroma_me=1 / trellis=1 / 8x8dct=1 / cqm=2 / deadzone=21,11 / chroma_qp_offset=0 / threads=3 / nr=0 / decimate=0 / mbaff=0 / bframes=3 / b_pyramid=1 / b_adapt=1 / b_bias=0 / direct=3 / wpredb=1 / bime=1 / keyint=240 / keyint_min=24 / scenecut=40(pre) / rc=2pass / bitrate=5671 / ratetol=1.0 / rceq='blurCplx^(1-qComp)' / qcomp=0.60 / qpmin=10 / qpmax=51 / qpstep=4 / cplxblur=20.0 / qblur=0.5 / ip_ratio=1.40 / pb_ratio=1.30
Язык : English

Аудио #1
Идентификатор : 2
Формат : AC-3
Формат/Информация : Audio Coding 3
Расширение режима : CM (complete main)
Идентификатор кодека : A_AC3
Продолжительность : 1 ч. 39 м.
Вид битрейта : Постоянный
Битрейт : 640 Кбит/сек
Каналы : 6 каналов
Расположение каналов : Front: L C R, Side: L R, LFE
Частота : 48,0 КГц
Битовая глубина : 16 бит
Метод сжатия : С потерями
Размер потока : 454 Мбайт (9%)
Заголовок : AC3 640 Kbps
Язык : English

Аудио #2
Идентификатор : 3
Формат : AC-3
Формат/Информация : Audio Coding 3
Расширение режима : CM (complete main)
Идентификатор кодека : A_AC3
Продолжительность : 1 ч. 39 м.
Вид битрейта : Постоянный
Битрейт : 448 Кбит/сек
Каналы : 6 каналов
Расположение каналов : Front: L C R, Side: L R, LFE
Частота : 48,0 КГц
Битовая глубина : 16 бит
Метод сжатия : С потерями
Размер потока : 318 Мбайт (7%)
Заголовок : AC3 448 Kbps
Язык : Russian


Свернуть
Не в сети
Профиль  
 Добавлено: 2012-02-09 22:20 (спустя 9 месяцев)
Стаж: 8 лет 3 месяца
Сообщений: 16
Дайте скорости плиз! Очень надо..
Не в сети
Профиль  
Начать новую темуОтветить на тему  [ Сообщений: 2 ] 
Вы не можете начинать темы
Вы не можете отвечать на сообщения
Вы не можете редактировать свои сообщения
Вы не можете удалять свои сообщения