Правила форума

  • В этом разделе создание новых тем Запрещено.
  • Для создания новых тем пользуйтесь Корневым разделом DVD и HD фильмы.
Начать новую темуОтветить на тему  [ 1 сообщение ] 
Торрент файл
Размер: 4.91 GB • Зарегистрирован: 3 года 11 месяцев • Статус: Проверено
Скачан: 2 раза • Желающих скачать: 0 • Поблагодарили: 2 раза
 Раздают: 0  |  0 KB/s  ]   Качают: 0  |  0 KB/s  ] 
 Полного источника не было 3 года 2 месяца 
Сообщения
 Добавлено: 2012-12-15 13:55
Книголюб
Аватара пользователя
Стаж: 7 лет 2 месяца
Сообщений: 2823
Спасибок: 48825
Лайков: 73
Бескрайнее море
Deguchi no nai umi

Изображение

Изображение


Год выпуска: 2006
Страна: Япония
Жанр: драма, военный
Продолжительность: 02:01:44
Перевод: Любительский одноголосый (JuiceTime (SPtrue))

Режиссёр: Киёси Сасабе/Kiyoshi Sasabe
В ролях: Шиносуке Ичикава, Юсуке Исейа, Джури Уено, Шун Шиоя, Теруюки Кагава, Юко Котегава, Томокадзу Миура, Сей Хирайзуми, Хироюки Хираяма, Мицунори Исаки
Описание: Кодзи Намики, талантливый молодой питчер, побеждавший в школьных национальных чемпионатах по бейсболу, поступает в университет, но вскоре после этого травмирует локоть. Он и его товарищи по команде упорно трудятся, чтобы вернуться на поле, возлагая все надежды на новую разновидность «медленной» подачи, которую они называют «волшебной».

Однако, начавшаяся Вторая мировая война разрушает все их планы относительно бейсбола. Они вступают в ряды вооруженных сил, и во флоте подвергаются суровой подготовке, которая готовит их к смерти. Смерть ждет их в «кайтен» (специальной торпедной подводной лодке или «человеческой торпеде») в мрачных океанских глубинах, но Кодзи не оставляет его мечту о «волшебной подаче».
Мировая премьера: 16 сентября 2006

Качество: BDRip, 720p
Формат: MKV
Видео кодек: H264 (AVC)
Аудио кодек: AC3 (Dolby Digital)
Видео: 1280x720 23.976fps 5 000 Kbps
Аудио #1: Russian:48000Hz 6ch; 384 Кбит/с
Аудио #2: Japanese:48000Hz 6ch; 384 Кбит/с
MediaInfo
General
Unique ID : 251359900095666657806691780751414325524 (0xBD1A27E5363162BA8170A96CEDF8F114)
Complete name : K:\Torrent\Beskraynoe more720p..mkv
Format : Matroska
Format version : Version 2
File size : 4.91 GiB
Duration : 2h 1mn
Overall bit rate : 5 768 Kbps
Encoded date : UTC 2012-12-14 17:38:01
Writing application : mkvmerge v2.9.8 ('C'est le bon') built on Aug 13 2009 12:49:06
Writing library : libebml v0.7.7 + libmatroska v0.8.1

Video
ID : 1
Format : AVC
Format/Info : Advanced Video Codec
Format profile : High@L4.1
Format settings, CABAC : Yes
Format settings, ReFrames : 3 frames
Codec ID : V_MPEG4/ISO/AVC
Duration : 2h 1mn
Bit rate : 5 000 Kbps
Width : 1 280 pixels
Height : 720 pixels
Display aspect ratio : 16:9
Frame rate mode : Variable
Frame rate : 23.976 fps
Color space : YUV
Chroma subsampling : 4:2:0
Bit depth : 8 bits
Scan type : Progressive
Bits/(Pixel*Frame) : 0.226
Stream size : 4.16 GiB (85%)
Writing library : x264 core 116 r2019M 9cc407d
Encoding settings : cabac=1 / ref=4 / deblock=1:-3:-3 / analyse=0x3:0x133 / me=tesa / subme=10 / psy=1 / psy_rd=1.00:0.15 / mixed_ref=1 / me_range=16 / chroma_me=1 / trellis=2 / 8x8dct=1 / cqm=0 / deadzone=21,11 / fast_pskip=1 / chroma_qp_offset=-3 / threads=12 / sliced_threads=0 / nr=0 / decimate=1 / interlaced=0 / bluray_compat=0 / constrained_intra=0 / bframes=3 / b_pyramid=1 / b_adapt=2 / b_bias=0 / direct=3 / weightb=1 / open_gop=0 / weightp=2 / keyint=230 / keyint_min=23 / scenecut=40 / intra_refresh=0 / rc_lookahead=40 / rc=2pass / mbtree=1 / bitrate=5000 / ratetol=1.0 / qcomp=0.60 / qpmin=10 / qpmax=51 / qpstep=4 / cplxblur=20.0 / qblur=0.5 / ip_ratio=1.40 / aq=1:1.00
Language : English
Default : No
Forced : No

Audio #1
ID : 2
Format : AC-3
Format/Info : Audio Coding 3
Mode extension : CM (complete main)
Codec ID : A_AC3
Duration : 2h 1mn
Bit rate mode : Constant
Bit rate : 384 Kbps
Channel(s) : 6 channels
Channel positions : Front: L C R, Side: L R, LFE
Sampling rate : 48.0 KHz
Bit depth : 16 bits
Compression mode : Lossy
Stream size : 334 MiB (7%)
Language : Russian
Default : No
Forced : No

Audio #2
ID : 3
Format : AC-3
Format/Info : Audio Coding 3
Mode extension : CM (complete main)
Codec ID : A_AC3
Duration : 2h 1mn
Bit rate mode : Constant
Bit rate : 384 Kbps
Channel(s) : 6 channels
Channel positions : Front: L C R, Side: L R, LFE
Sampling rate : 48.0 KHz
Bit depth : 16 bits
Compression mode : Lossy
Stream size : 334 MiB (7%)
Language : Japanese
Default : No
Forced : No

Text
ID : 4
Format : UTF-8
Codec ID : S_TEXT/UTF8
Codec ID/Info : UTF-8 Plain Text
Language : Russian
Default : Yes
Forced : No


Свернуть

Скриншоты
Изображение
Изображение
Изображение
Свернуть
Не в сети
Профиль  
Начать новую темуОтветить на тему  [ 1 сообщение ] 
Вы не можете начинать темы
Вы не можете отвечать на сообщения
Вы не можете редактировать свои сообщения
Вы не можете удалять свои сообщения