Правила форума

  • В этом разделе создание новых тем Запрещено.
  • Для создания новых тем пользуйтесь Корневым разделом DVD и HD фильмы.
Начать новую темуОтветить на тему  [ 1 сообщение ] 
Торрент файл
Размер: 12.52 GB • Зарегистрирован: 3 года 11 месяцев • Статус: Проверено
Скачан: 1 раз • Желающих скачать: 0 • Поблагодарили: 0 раз
 Раздают: 0  |  0 KB/s  ]   Качают: 0  |  0 KB/s  ] 
 Полного источника не было 3 года 2 месяца 
Сообщения
 Добавлено: 2012-12-15 14:07
Книголюб
Аватара пользователя
Стаж: 7 лет 2 месяца
Сообщений: 2823
Спасибок: 48826
Лайков: 73
Бескрайнее море
Deguchi no nai umi

Изображение


Год выпуска: 2006
Страна: Япония
Жанр: драма, военный
Продолжительность: 02:01:44
Перевод: Любительский одноголосый (JuiceTime (SPtrue))

Режиссёр: Киёси Сасабе/Kiyoshi Sasabe
В ролях: Шиносуке Ичикава, Юсуке Исейа, Джури Уено, Шун Шиоя, Теруюки Кагава, Юко Котегава, Томокадзу Миура, Сей Хирайзуми, Хироюки Хираяма, Мицунори Исаки
Описание: Кодзи Намики, талантливый молодой питчер, побеждавший в школьных национальных чемпионатах по бейсболу, поступает в университет, но вскоре после этого травмирует локоть. Он и его товарищи по команде упорно трудятся, чтобы вернуться на поле, возлагая все надежды на новую разновидность «медленной» подачи, которую они называют «волшебной».

Однако, начавшаяся Вторая мировая война разрушает все их планы относительно бейсбола. Они вступают в ряды вооруженных сил, и во флоте подвергаются суровой подготовке, которая готовит их к смерти. Смерть ждет их в «кайтен» (специальной торпедной подводной лодке или «человеческой торпеде») в мрачных океанских глубинах, но Кодзи не оставляет его мечту о «волшебной подаче».
Мировая премьера: 16 сентября 2006

Качество: BDRip, 1080p
Формат: MKV
Видео кодек: H264 (AVC)
Аудио кодек: DTS
Видео: 1920x1080 23.976fps 10 000 Kbps
Аудио #1: Russian:48000Hz 6ch 1 561 Kbps
Аудио #2: Japanese:48000Hz 6ch 2 815 Kbps
MediaInfo
General
Unique ID : 146861696460287693323046538243164221866 (0x6E7C88ACFDC5972326F42C11559231AA)
Complete name : K:\Torrent\Beskraynoe more1080p.mkv
Format : Matroska
Format version : Version 2
File size : 12.5 GiB
Duration : 2h 1mn
Overall bit rate mode : Variable
Overall bit rate : 14.7 Mbps
Writing application : XviD4PSP 6.0 / 53.6.0
Writing library : XviD4PSP 6.0 / 53.6.0

Video
ID : 1
Format : AVC
Format/Info : Advanced Video Codec
Format profile : High@L4.1
Format settings, CABAC : Yes
Format settings, ReFrames : 3 frames
Codec ID : V_MPEG4/ISO/AVC
Duration : 2h 1mn
Bit rate : 10 000 Kbps
Width : 1 920 pixels
Height : 1 080 pixels
Display aspect ratio : 16:9
Frame rate mode : Variable
Frame rate : 23.976 fps
Color space : YUV
Chroma subsampling : 4:2:0
Bit depth : 8 bits
Scan type : Progressive
Bits/(Pixel*Frame) : 0.201
Stream size : 8.55 GiB (68%)
Writing library : x264 core 116 r2019M 9cc407d
Encoding settings : cabac=1 / ref=4 / deblock=1:-3:-3 / analyse=0x3:0x133 / me=tesa / subme=10 / psy=1 / psy_rd=1.00:0.15 / mixed_ref=1 / me_range=16 / chroma_me=1 / trellis=2 / 8x8dct=1 / cqm=0 / deadzone=21,11 / fast_pskip=1 / chroma_qp_offset=-3 / threads=12 / sliced_threads=0 / nr=0 / decimate=1 / interlaced=0 / bluray_compat=0 / constrained_intra=0 / bframes=3 / b_pyramid=1 / b_adapt=2 / b_bias=0 / direct=3 / weightb=1 / open_gop=0 / weightp=2 / keyint=230 / keyint_min=23 / scenecut=40 / intra_refresh=0 / rc_lookahead=40 / rc=2pass / mbtree=1 / bitrate=10000 / ratetol=1.0 / qcomp=0.60 / qpmin=10 / qpmax=51 / qpstep=4 / cplxblur=20.0 / qblur=0.5 / ip_ratio=1.40 / aq=1:1.00
Language : English
Default : Yes
Forced : No

Audio #1
ID : 2
Format : DTS
Format/Info : Digital Theater Systems
Format profile : MA / Core
Codec ID : A_DTS
Duration : 2h 1mn
Bit rate mode : Variable
Bit rate : 1 561 Kbps / 1 510 Kbps
Channel(s) : 6 channels
Channel positions : Front: L C R, Side: L R, LFE
Sampling rate : 48.0 KHz
Bit depth : 16 bits
Compression mode : Lossless / Lossy
Language : Russian
Default : Yes
Forced : No

Audio #2
ID : 3
Format : DTS
Format/Info : Digital Theater Systems
Format profile : HRA / Core
Codec ID : A_DTS
Duration : 2h 1mn
Bit rate mode : Constant
Bit rate : 2 815 Kbps / 1 510 Kbps
Channel(s) : 6 channels
Channel positions : Front: L C R, Side: L R, LFE
Sampling rate : 48.0 KHz
Bit depth : 24 bits
Compression mode : Lossy
Stream size : 2.39 GiB (19%)
Language : Japanese
Default : Yes
Forced : No


Свернуть

Скриншоты
Изображение
Изображение
Изображение
Свернуть
Не в сети
Профиль  
Начать новую темуОтветить на тему  [ 1 сообщение ] 
Вы не можете начинать темы
Вы не можете отвечать на сообщения
Вы не можете редактировать свои сообщения
Вы не можете удалять свои сообщения