Правила форума

  • В этом разделе создание новых тем Запрещено.
  • Для создания новых тем пользуйтесь Корневым разделом DVD и HD фильмы.
Начать новую темуОтветить на тему  [ Сообщений: 4 ] 
Торрент файл
Размер: 4.31 GB • Зарегистрирован: 4 года 5 месяцев • Статус: Проверено
Скачан: 660 раз • Желающих скачать: 0 • Поблагодарили: 133 раза
 Раздают: 0  |  0 KB/s  ]   Качают: 0  |  0 KB/s  ] 
 Полного источника не было 4 часа 
Сообщения
 Добавлено: 2012-07-03 18:22
Top-releaser
Аватара пользователя
Стаж: 6 лет 7 месяцев
Сообщений: 2078
Спасибок: 3230
Лайков: 9
Бэтмен: Начало / Batman Begins

Изображение


Год выпуска: 2005
Страна: США
Жанр: боевик, триллер, приключения, криминал
Продолжительность: 2:20:02
Перевод: Профессиональный (полное дублирование)

Режиссёр: Кристофер Нолан
В ролях: Кристиан Бэйл, Майкл Кейн, Лайам Нисон, Кэти Холмс, Гари Олдман, Киллиан Мерфи, Том Уилкинсон, Рутгер Хауэр, Кен Ватанабе, Марк Бун Джуниор
Описание: История о происхождении легенды Брюса Уэйна, юного наследника огромного состояния, потерявшего своих родителей. Покинув родной Готэм, он отправляется в путешествие по миру. Многочисленные преграды и лишения закаляют его характер, а мудрый наставник помогает вновь обрести смысл жизни.
Легендарный герой, защитник слабых и борец с несправедливостью преображается у тебя на глазах. Вернувшись в Готэм, Бэтмен становится единственной преградой на пути у сил зла, готовых ввергнуть город во мрак беззакония…

Раздача группы: Изображение

Бюджет: $150 000 000
Сборы в США: $205 343 774
Сборы в мире: + $166 510 009 = $371 853 783


Качество: HD-DVDRip
Формат: MKV
Видео кодек: H.264
Аудио кодек: AC3 (Dolby Digital)
Видео: 1280x534, 23.976 fps, x264, 3384.57 kbit/s
Аудио #1: Русский DD 5.1 48 KHz 640 kbps [Dub BD-CEE]
Аудио #1: Английский DD 5.1 48 KHz 384 kbps [Original]
Субтитры: Русские, Английские

MediaInfo
Общее
Уникальный идентификатор : 214487226183457086564829414617022309403 (0xA15CBCB67C9FD4419ED240697631A41B)
Полное имя : \\MyBookLive\Public\WWW\TR-Downloads\Batman Begins[R.G.Daredevil].mkv
Формат : Matroska
Версия формата : Version 2
Размер файла : 4,31 Гбайт
Продолжительность : 2 ч. 20 м.
Общий поток : 4411 Кбит/сек
Название фильма : Batman Begins
Дата кодирования : UTC 2009-12-30 03:49:33
Программа кодирования : mkvmerge v2.9.8 ('C'est le bon') built on Aug 13 2009 12:49:06
Библиотека кодирования : libebml v0.7.7 + libmatroska v0.8.1

Видео
Идентификатор : 1
Формат : AVC
Формат/Информация : Advanced Video Codec
Профиль формата : High@L4.1
Параметр CABAC формата : Да
Параметр ReFrames формата : 12 кадров
Идентификатор кодека : V_MPEG4/ISO/AVC
Продолжительность : 2 ч. 20 м.
Битрейт : 3299 Кбит/сек
Ширина : 1280 пикселей
Высота : 534 пикселя
Соотношение сторон : 2,40:1
Частота кадров : 23,976 кадра/сек
Цветовое пространство : YUV
Субдискретизация насыщенности : 4:2:0
Битовая глубина : 8 бит
Тип развёртки : Прогрессивная
Бит/(Пиксели*Кадры) : 0.201
Размер потока : 3,23 Гбайт (75%)
Заголовок : Batman Begins
Библиотека кодирования : x264 core 80 r1376M 3feaec2
Настройки программы : cabac=1 / ref=12 / deblock=1:-1:-2 / analyse=0x3:0x133 / me=umh / subme=9 / psy=1 / psy_rd=1.0:0.0 / mixed_ref=1 / me_range=48 / chroma_me=1 / trellis=2 / 8x8dct=1 / cqm=0 / deadzone=21,11 / fast_pskip=0 / chroma_qp_offset=-2 / threads=9 / sliced_threads=0 / nr=0 / decimate=1 / mbaff=0 / constrained_intra=0 / bframes=16 / b_pyramid=2 / b_adapt=2 / b_bias=0 / direct=3 / wpredb=1 / wpredp=2 / keyint=250 / keyint_min=25 / scenecut=40 / rc_lookahead=60 / rc=crf / mbtree=0 / crf=18.0 / qcomp=0.60 / qpmin=10 / qpmax=51 / qpstep=4 / vbv_maxrate=50000 / vbv_bufsize=50000 / ip_ratio=1.40 / pb_ratio=1.30 / aq=1:1.00
Язык : English
Default : Нет
Forced : Нет

Аудио #1
Идентификатор : 2
Формат : AC-3
Формат/Информация : Audio Coding 3
Расширение режима : CM (complete main)
Параметр Endianness формата : Big
Идентификатор кодека : A_AC3
Продолжительность : 2 ч. 20 м.
Вид битрейта : Постоянный
Битрейт : 640 Кбит/сек
Каналы : 6 каналов
Расположение каналов : Front: L C R, Side: L R, LFE
Частота : 48,0 КГц
Битовая глубина : 16 бит
Метод сжатия : С потерями
Размер потока : 641 Мбайт (15%)
Заголовок : DD 5.1 48 KHz 640 kbps[Dub BD-CEE]
Язык : Russian
Default : Да
Forced : Нет

Аудио #2
Идентификатор : 3
Формат : AC-3
Формат/Информация : Audio Coding 3
Расширение режима : CM (complete main)
Параметр Endianness формата : Big
Идентификатор кодека : A_AC3
Продолжительность : 2 ч. 20 м.
Вид битрейта : Постоянный
Битрейт : 384 Кбит/сек
Каналы : 6 каналов
Расположение каналов : Front: L C R, Side: L R, LFE
Частота : 48,0 КГц
Битовая глубина : 16 бит
Метод сжатия : С потерями
Размер потока : 385 Мбайт (9%)
Заголовок : DD 5.1 48 KHz 384 kbps[Original]
Язык : English
Default : Нет
Forced : Нет

Текст #1
Идентификатор : 4
Формат : UTF-8
Идентификатор кодека : S_TEXT/UTF8
Идентификатор кодека/Информация : UTF-8 Plain Text
Язык : Russian
Default : Нет
Forced : Нет

Текст #2
Идентификатор : 5
Формат : UTF-8
Идентификатор кодека : S_TEXT/UTF8
Идентификатор кодека/Информация : UTF-8 Plain Text
Язык : English
Default : Нет
Forced : Нет

Текст #3
Идентификатор : 6
Формат : UTF-8
Идентификатор кодека : S_TEXT/UTF8
Идентификатор кодека/Информация : UTF-8 Plain Text
Заголовок : SDH
Язык : English
Default : Нет
Forced : Нет

Меню
00:00:00.000 : en:Chapter 1
00:03:39.000 : en:Chapter 2
00:07:30.400 : en:Chapter 3
00:11:33.200 : en:Chapter 4
00:16:14.400 : en:Chapter 5
00:19:43.100 : en:Chapter 6
00:24:17.500 : en:Chapter 7
00:28:23.000 : en:Chapter 8
00:31:23.300 : en:Chapter 9
00:35:51.400 : en:Chapter 10
00:38:22.200 : en:Chapter 11
00:41:12.100 : en:Chapter 12
00:43:05.400 : en:Chapter 13
00:46:55.100 : en:Chapter 14
00:49:41.000 : en:Chapter 15
00:53:23.000 : en:Chapter 16
00:55:51.400 : en:Chapter 17
00:57:58.400 : en:Chapter 18
01:03:28.000 : en:Chapter 19
01:05:49.100 : en:Chapter 20
01:08:34.400 : en:Chapter 21
01:11:21.300 : en:Chapter 22
01:13:15.100 : en:Chapter 23
01:16:11.400 : en:Chapter 24
01:19:45.300 : en:Chapter 25
01:23:49.200 : en:Chapter 26
01:28:57.200 : en:Chapter 27
01:32:31.100 : en:Chapter 28
01:37:43.100 : en:Chapter 29
01:40:27.400 : en:Chapter 30
01:45:02.400 : en:Chapter 31
01:49:25.300 : en:Chapter 32
01:51:22.300 : en:Chapter 33
01:54:42.100 : en:Chapter 34
01:58:04.000 : en:Chapter 35
02:01:47.400 : en:Chapter 36
02:04:53.400 : en:Chapter 37
02:05:59.200 : en:Chapter 38
02:09:10.400 : en:Chapter 39
02:10:49.100 : en:Chapter 40
Свернуть
Скриншоты
Изображение

Изображение

Изображение

Изображение
Свернуть
 rOPblHbl4 нравится это.
Не в сети
Профиль  
 Добавлено: 2012-07-24 20:16 (спустя 21 день)
Аватара пользователя
Стаж: 4 года 6 месяцев
Возраст: 21
Сообщений: 27
Спасибок: 23
Видимо благоларить автора раздачи, как я заметил, на этом трекере как то не принято... 43/5
Спасибо тебе, единственная нормальная одиночная, не сборка!!! :bra_vo: :ni_zia:
_________________
Изображение
Не в сети
Профиль  
 Добавлено: 2012-07-24 21:27 (спустя 1 час 11 минут)
Top-releaser
Аватара пользователя
Стаж: 6 лет 7 месяцев
Сообщений: 2078
Спасибок: 3230
Лайков: 9
Knight2000
:co_ol:
Не в сети
Профиль  
 Добавлено: 2016-11-04 09:25 (спустя 4 года 3 месяца)
Стаж: 6 лет 4 месяца
Сообщений: 8
раздайте пожл
Не в сети
Профиль  
Начать новую темуОтветить на тему  [ Сообщений: 4 ] 
Вы не можете начинать темы
Вы не можете отвечать на сообщения
Вы не можете редактировать свои сообщения
Вы не можете удалять свои сообщения