Правила форума

  • В этом разделе создание новых тем Запрещено.
  • Для создания новых тем пользуйтесь Корневым разделом DVD и HD фильмы.
Начать новую темуОтветить на тему  [ Сообщений: 3 ] 
Торрент файл
Размер: 4.68 GB • Зарегистрирован: 5 лет 3 месяца • Статус: Проверено
Скачан: 186 раз • Желающих скачать: 0 • Поблагодарили: 34 раза
 Раздают: 0  |  0 KB/s  ]   Качают: 0  |  0 KB/s  ] 
 Полного источника не было 9 месяцев 
Сообщения
 Добавлено: 2011-08-11 15:37
Модератор
Аватара пользователя
Стаж: 8 лет 1 месяц
Возраст: 20
Сообщений: 32130
Спасибок: 98561
Лайков: 80
Изображение

Без компромиссов / Blitz


Год выпуска: 2011
Страна: Великобритания

Жанр: триллер, криминал
Продолжительность: 01:37:01
Перевод: Дублированный [лицензия]

Режиссер: Эллиотт Лестер
В ролях: Джейсон Стэтхэм, Пэдди Консидайн, Эйден Гиллен, Зэйв Эштон, Дэвид Моррисси, Ричард Ридделл, Дес Баррон, Джон Бертон, Тая Де Ла Круз, Набил Елухаби
Сборы в России: $2 553 892

Мировая премьера: 6 мая 2011
Описание: Семь или восемь? Не в граммах, а в полицейских!.. Именно этим вопросом задается лондонский маньяк, решивший прославиться. Выбрав себе для первых полос таблоидов звучный псевдоним Блиц и вооружившись молотком, Барри Вайс выходит на улицы. И теперь главному герою придется спасать свою шкуру и пытаться остановить сумасшедшего убийцу...
Изображение
MPAA: Изображение - Лицам до 17 лет обязательно присутствие взрослого
Тип релиза: BDRip 720p R5
Контейнер: MKV
Видео: MPEG-4 AVC, 5812 Кбит/с, 1280x544, 24.000 кадр/с
Аудио: Русский (AC3, 6 ch, 448 Кбит/с), английский (AC3, 6 ch, 640 Кбит/с)
Релиз: Изображение
Изображение
Знаете ли Вы, что...
  • Кен Бруен, автор книги «Блиц», по которой снят фильм, сыграл небольшую роль священника на похоронах.
Свернуть
MediaInfo
General
Complete name                    : Bez.kompromissov.2011.D.BDRip.720p.mkv
Format                           : Matroska
File size                        : 4.68 GiB
Duration                         : 1h 37mn
Overall bit rate                 : 6 903 Kbps
Movie name                       : -= Release for Uniongang.tv =-
Encoded date                     : UTC 2011-08-11 11:11:14
Writing application              : mkvmerge v2.4.0 ('Fumbling Towards Ecstasy') built on Oct 11 2008 20:13:15
Writing library                  : libebml v0.7.7 + libmatroska v0.8.1

Video
ID                               : 1
Format                           : AVC
Format/Info                      : Advanced Video Codec
Format profile                   : High@L4.1
Format settings, CABAC           : Yes
Format settings, ReFrames        : 12 frames
Muxing mode                      : Container profile=Unknown@4.1
Codec ID                         : V_MPEG4/ISO/AVC
Duration                         : 1h 37mn
Bit rate                         : 5 812 Kbps
Width                            : 1 280 pixels
Height                           : 544 pixels
Display aspect ratio             : 2.35:1
Frame rate                       : 24.000 fps
Color space                      : YUV
Chroma subsampling               : 4:2:0
Bit depth                        : 8 bits
Scan type                        : Progressive
Bits/(Pixel*Frame)               : 0.348
Stream size                      : 3.85 GiB (82%)
Title                            : Blitz (2011)
Writing library                  : x264 core 116 r2037 f8ebd4a
Encoding settings                : cabac=1 / ref=12 / deblock=1:-3:-3 / analyse=0x3:0x133 / me=umh / subme=10 / psy=1 / psy_rd=1.05:0.10 / mixed_ref=1 / me_range=32 / chroma_me=1 / trellis=2 / 8x8dct=1 / cqm=0 / deadzone=21,11 / fast_pskip=1 / chroma_qp_offset=-3 / threads=12 / sliced_threads=0 / nr=0 / decimate=1 / interlaced=0 / bluray_compat=0 / constrained_intra=0 / bframes=8 / b_pyramid=2 / b_adapt=2 / b_bias=0 / direct=3 / weightb=1 / open_gop=1 / weightp=2 / keyint=250 / keyint_min=24 / scenecut=40 / intra_refresh=0 / rc_lookahead=80 / rc=2pass / mbtree=1 / bitrate=5812 / ratetol=1.0 / qcomp=0.60 / qpmin=10 / qpmax=69 / qpstep=4 / cplxblur=20.0 / qblur=0.5 / ip_ratio=1.40 / aq=1:0.80
Language                         : English

Audio #1
ID                               : 2
Format                           : AC-3
Format/Info                      : Audio Coding 3
Mode extension                   : CM (complete main)
Codec ID                         : A_AC3
Duration                         : 1h 37mn
Bit rate mode                    : Constant
Bit rate                         : 448 Kbps
Channel(s)                       : 6 channels
Channel positions                : Front: L C R, Side: L R, LFE
Sampling rate                    : 48.0 KHz
Bit depth                        : 16 bits
Stream size                      : 311 MiB (6%)
Title                            : AC3 5.1 @ 448 Kbps - Dub
Language                         : Russian

Audio #2
ID                               : 3
Format                           : AC-3
Format/Info                      : Audio Coding 3
Mode extension                   : CM (complete main)
Codec ID                         : A_AC3
Duration                         : 1h 37mn
Bit rate mode                    : Constant
Bit rate                         : 640 Kbps
Channel(s)                       : 6 channels
Channel positions                : Front: L C R, Side: L R, LFE
Sampling rate                    : 48.0 KHz
Bit depth                        : 16 bits
Stream size                      : 444 MiB (9%)
Title                            : AC3 5.1 @ 640 Kbps
Language                         : English

Text
ID                               : 4
Format                           : UTF-8
Codec ID                         : S_TEXT/UTF8
Codec ID/Info                    : UTF-8 Plain Text
Language                         : English

Menu
00:00:00.000                     : en:00:00:00.000
00:06:38.500                     : en:00:06:38.500
00:15:10.417                     : en:00:15:10.417
00:23:06.333                     : en:00:23:06.333
00:29:14.292                     : en:00:29:14.292
00:38:36.417                     : en:00:38:36.417
00:45:27.958                     : en:00:45:27.958
00:52:15.667                     : en:00:52:15.667
01:00:46.583                     : en:01:00:46.583
01:08:06.875                     : en:01:08:06.875
01:16:12.542                     : en:01:16:12.542
01:22:30.958                     : en:01:22:30.958
Свернуть
Скриншоты
Изображение

Изображение

Изображение

Изображение

Изображение
Свернуть
В сети
Профиль  
 Добавлено: 2011-09-25 18:20 (спустя 1 месяц 14 дней)
Аватара пользователя
Стаж: 8 лет 10 месяцев
Возраст: 27
Сообщений: 721
Спасибок: 5528
Лайков: 1
на один раз :)
_________________
Изображение
Не в сети
Профиль  
 Добавлено: 2011-09-28 21:35 (спустя 3 дня)
Стаж: 7 лет 8 месяцев
Сообщений: 105
понравилось
Не в сети
Профиль  
Начать новую темуОтветить на тему  [ Сообщений: 3 ] 
Вы не можете начинать темы
Вы не можете отвечать на сообщения
Вы не можете редактировать свои сообщения
Вы не можете удалять свои сообщения