Правила форума

  • В этом разделе создание новых тем Запрещено.
  • Для создания новых тем пользуйтесь Корневым разделом DVD и HD фильмы.
Начать новую темуОтветить на тему  [ 1 сообщение ] 
Торрент файл
Размер: 4.37 GB • Зарегистрирован: 5 лет 3 месяца • Статус: Проверено
Скачан: 69 раз • Желающих скачать: 0 • Поблагодарили: 13 раз
 Раздают: 0  |  0 KB/s  ]   Качают: 0  |  0 KB/s  ] 
 Полного источника не было 3 года 1 месяц 
Сообщения
 Добавлено: 2013-07-05 19:17
Top-releaser
Аватара пользователя
Стаж: 8 лет 7 месяцев
Сообщений: 1286
Спасибок: 3420
Лайков: 7
Изображение

Без компромиссов / Blitz

Страна: Великобритания
Жанр: триллер, криминал
Год выхода: 2011
Продолжительность: 01:37:01
Перевод: Дубляж, НТВ+
Режиссер: Эллиотт Лестер
В ролях: Джейсон Стэтхэм(Detective Sergeant Tom Brant ), Пэдди Консидайн(Porter Nash), Эйден Гиллен(Barry Weiss / The Blitz), Зэйв Эштон(WPC Elizabeth Falls), Дэвид Моррисси(Harold Dunphy), Ричард Ридделл(PC McDonald), Дес Баррон(Shopper), Джон Бертон(Metals Dad), Тая Де Ла Круз(Dancing Girl), Набил Елухаби и др...


Описание: Семь или восемь? Не в граммах, а в полицейских!.. Именно этим вопросом задается лондонский маньяк, решивший прославиться. Выбрав себе для первых полос таблоидов звучный псевдоним Блиц и вооружившись молотком, Барри Вайс выходит на улицы. И теперь главному герою придется спасать свою шкуру и пытаться остановить сумасшедшего убийцу

Раздача: Изображение

Изображение


Сборы в России: $2 553 892
Мировая премьера: 6 мая 2011
MPAA: Изображение
Качество: BDRip
Формат: Matroska
Видео: AVC; 1920x816 (2.35:1); 5871 Kbps; 24 fps; 0,156 bpp
Аудио: Russian; AC3; 448 Kbps; CBR; 6 ch

Знаете ли Вы, что...
  • Кен Бруен, автор книги «Блиц», по которой снят фильм, сыграл небольшую роль священника на похоронах.
Свернуть
MediaInfo
Уникальный идентификатор : 193011984484781748095346409597773537740 (0x9134C18CC9653D75BE58318204AFE1CC)
Полное имя : E:\Видео\Blitz[RG.KINOvNINO].mkv
Формат : Matroska
Версия формата : Version 2
Размер файла : 4,37 Гбайт
Продолжительность : 1 ч. 37 м.
Общий поток : 6448 Кбит/сек
Название фильма : Без компромиссов / Blitz (2011) BDRip 1080p-Rip by Neofilm for Neoclub.net
Дата кодирования : UTC 2011-08-13 04:33:44
Программа кодирования : mkvmerge v4.9.1 ('Ich will') сборка от Jul 11 2011 23:53:15
Библиотека кодирования : libebml v1.2.1 + libmatroska v1.1.1

Видео
Идентификатор : 1
Формат : AVC
Формат/Информация : Advanced Video Codec
Профиль формата : High@L4.1
Параметр CABAC формата : Да
Параметр ReFrames формата : 5 кадров
Идентификатор кодека : V_MPEG4/ISO/AVC
Продолжительность : 1 ч. 37 м.
Битрейт : 6000 Кбит/сек
Ширина : 1920 пикс.
Высота : 816 пикс.
Соотношение сторон : 2,35:1
Частота кадров : 24,000 кадр/сек
Цветовое пространство : YUV
Подвыборка цветности : 4:2:0
Битовая глубина : 8 бит
Тип развёртки : Прогрессивная
Бит/(Пиксели*Кадры) : 0.160
Размер потока : 3,98 Гбайт (91%)
Заголовок : Без компромиссов / Blitz (2011) BDRip 1080p
Библиотека кодирования : x264 core 115 r1995 c1e60b9
Настройки программы : cabac=1 / ref=5 / deblock=1:0:0 / analyse=0x3:0x113 / me=umh / subme=10 / psy=1 / psy_rd=1.05:0.10 / mixed_ref=1 / me_range=32 / chroma_me=1 / trellis=2 / 8x8dct=1 / cqm=0 / deadzone=21,11 / fast_pskip=0 / chroma_qp_offset=-5 / threads=6 / sliced_threads=0 / nr=0 / decimate=0 / interlaced=0 / bluray_compat=0 / constrained_intra=0 / bframes=3 / b_pyramid=2 / b_adapt=2 / b_bias=0 / direct=3 / weightb=1 / open_gop=0 / weightp=2 / keyint=250 / keyint_min=23 / scenecut=40 / intra_refresh=0 / rc_lookahead=40 / rc=2pass / mbtree=1 / bitrate=6000 / ratetol=1.0 / qcomp=0.60 / qpmin=10 / qpmax=51 / qpstep=4 / cplxblur=20.0 / qblur=0.5 / ip_ratio=1.40 / aq=1:1.00
Язык : English

Аудио
Идентификатор : 2
Формат : AC-3
Формат/Информация : Audio Coding 3
Расширение режима : CM (complete main)
Идентификатор кодека : A_AC3
Продолжительность : 1 ч. 37 м.
Вид битрейта : Постоянный
Битрейт : 448 Кбит/сек
Каналы : 6 каналов
Расположение каналов : Front: L C R, Side: L R, LFE
Частота : 48,0 КГц
Битовая глубина : 16 бит
Метод сжатия : С потерями
Размер потока : 311 Мбайт (7%)
Заголовок : 3/2+1
Язык : Russian

Меню
00:00:00.000 : en:Chapter 00
00:06:38.500 : en:Chapter 01
00:15:10.416 : en:Chapter 02
00:23:06.333 : en:Chapter 03
00:29:14.291 : en:Chapter 04
00:38:36.416 : en:Chapter 05
00:45:27.958 : en:Chapter 06
00:52:15.666 : en:Chapter 07
01:00:46.583 : en:Chapter 08
01:08:06.875 : en:Chapter 09
01:16:12.541 : en:Chapter 10
01:22:30.957 : en:Chapter 11

Свернуть
Скриншоты

Изображение
Изображение
Изображение
Изображение
Изображение
Изображение
Изображение
Изображение
Свернуть
Изображение


Тема поднималась пользователем Shamman 2013-07-05 19:17.
Не в сети
Профиль  
Начать новую темуОтветить на тему  [ 1 сообщение ] 
Вы не можете начинать темы
Вы не можете отвечать на сообщения
Вы не можете редактировать свои сообщения
Вы не можете удалять свои сообщения