Правила форума

  • В этом разделе создание новых тем Запрещено.
  • Для создания новых тем пользуйтесь Корневым разделом DVD и HD фильмы.
Начать новую темуОтветить на тему  [ Сообщений: 2 ] 
Торрент файл
Размер: 13.44 GB • Зарегистрирован: 5 лет 10 месяцев • Статус: Проверено
Скачан: 44 раза • Желающих скачать: 0 • Поблагодарили: 9 раз
 Раздают: 0  |  0 KB/s  ]   Качают: 0  |  0 KB/s  ] 
 Полного источника не было 2 года 7 месяцев 
Сообщения
 Добавлено: 2011-01-20 00:11
Аватара пользователя
Стаж: 8 лет
Возраст: 30
Сообщений: 846
Спасибок: 982
Лайков: 1
Без лица / Face Off

Изображение


Год выпуска: 1997
Страна: США
Слоган: «Взгляни на мир глазами своего врага.»
Жанр: Боевик, Триллер, Мелодрама, Драма, Криминал
Продолжительность: 02:18:56
Версия фильма: Unrated / Полная версия
Перевод: Профессиональный (дубляж)

Режиссёр: Джон Ву
В ролях: Джон Траволта, Николас Кейдж, Джоан Аллен, Алессандро Нивола, Джина Гершон, Доминик Суэйн, Ник Кассаветис, Харви Преснелл, Колм Фиори, Джон Кэрролл Линч
Описание: Чтобы отомстить за жестокое убийство своего сына, агент ФБР Шон Арчер соглашается на сложную хирургическую операцию. Он берет себе новое лицо, лицо террориста Кастора Троя, который находится в коме.

Однако происходит непредвиденное: Трой приходит в себя и исчезает в обличьи Арчера. Жизнь Шона превращается в настоящий кошмар — ему приходится сражаться не только за свою жизнь, но и за жизнь своей жены и дочери.


Качество: BDRip, 1080p
Формат: MKV
Видео кодек: H264 (AVC)
Аудио кодек: AC3 (Dolby Digital)
Видео: 1920x816p, 23.976 fps, 13 mbps
Аудио #1: Русский AC3, 5.1 384 kbps [Профессиональный (дубляж)]
Аудио #2: English DTS, 5.1 1536
MediaInfo
Общее
Уникальный идентификатор : 225506734244813120533787746805718294286 (0xA9A70468282156FB8FB669849AFD9F0E)
Полное имя : F:\Без лица 1080p.mkv
Формат : Matroska
Размер файла : 13,4 Гбайт
Продолжительность : 2 ч. 18 м.
Общий поток : 13,9 Мбит/сек
Дата кодирования : UTC 2008-09-02 15:47:46
Программа кодирования : mkvmerge v2.2.0 ('Turn It On Again') built on Mar 4 2008 12:58:26
Библиотека кодирования : libebml v0.7.7 + libmatroska v0.8.1

Видео
Идентификатор : 1
Формат : AVC
Формат/Информация : Advanced Video Codec
Профиль формата : High@L4.1
Параметр CABAC формата : Да
Параметр ReFrames формата : 4 кадры
Идентификатор кодека : V_MPEG4/ISO/AVC
Продолжительность : 2 ч. 18 м.
Битрейт : 12,0 Мбит/сек
Ширина : 1920 пикс.
Высота : 816 пикс.
Соотношение сторон : 2,35:1
Частота кадров : 23,976 кадр/сек
Цветовое пространство : YUV
Подвыборка цветности : 4:2:0
Битовая глубина : 8 бит
Тип развёртки : Прогрессивная
Бит/(Пиксели*Кадры) : 0.318
Размер потока : 11,3 Гбайт (84%)
Заголовок : x264 2pass dxva
Библиотека кодирования : x264 core 60 r886M 1075536
Настройки программы : cabac=1 / ref=4 / deblock=1:-3:-3 / analyse=0x3:0x113 / me=umh / subme=7 / rdcmp=psy / brdo=1 / mixed_ref=1 / me_range=16 / chroma_me=1 / trellis=0 / 8x8dct=1 / cqm=0 / deadzone=6,4 / chroma_qp_offset=0 / threads=6 / nr=0 / decimate=0 / mbaff=0 / bframes=3 / b_pyramid=1 / b_adapt=1 / b_bias=0 / direct=1 / wpredb=1 / bime=1 / keyint=250 / keyint_min=25 / scenecut=40(pre) / rc=2pass / bitrate=11959 / ratetol=2.0 / rceq='blurCplx^(1-qComp)' / qcomp=1.00 / qpmin=10 / qpmax=51 / qpstep=4 / cplxblur=20.0 / qblur=0.5 / vbv_maxrate=38000 / vbv_bufsize=30000 / ip_ratio=1.40 / pb_ratio=1.30 / aq=2:1.00

Аудио #1
Идентификатор : 2
Формат : AC-3
Формат/Информация : Audio Coding 3
Расширение режима : CM (complete main)
Идентификатор кодека : A_AC3
Продолжительность : 2 ч. 18 м.
Вид битрейта : Постоянный
Битрейт : 384 Кбит/сек
Канал(ы) : 6 канала(ов)
Расположение каналов : Front: L C R, Side: L R, LFE
Частота : 48,0 КГц
Битовая глубина : 16 бит
Метод сжатия : С потерями
Задержка видео : 32 мс.
Размер потока : 382 Мбайт (3%)
Заголовок : Russian AC3 5.1 384 kbps
Язык : Russian

Аудио #2
Идентификатор : 3
Формат : DTS
Формат/Информация : Digital Theater Systems
Идентификатор кодека : A_DTS
Продолжительность : 2 ч. 18 м.
Вид битрейта : Постоянный
Битрейт : 1510 Кбит/сек
Канал(ы) : 6 канала(ов)
Расположение каналов : Front: L C R, Side: L R, LFE
Частота : 48,0 КГц
Битовая глубина : 24 бит
Метод сжатия : С потерями
Размер потока : 1,47 Гбайт (11%)
Заголовок : DTS 1536
Язык : English

Текст #1
Идентификатор : 4
Формат : ASS
Идентификатор кодека : S_TEXT/ASS
Идентификатор кодека/Информация : Advanced Sub Station Alpha
Метод сжатия : Без потерь
Язык : English

Текст #2
Идентификатор : 5
Формат : UTF-8
Идентификатор кодека : S_TEXT/UTF8
Идентификатор кодека/Информация : UTF-8 Plain Text
Язык : Dutch

Свернуть
Скриншоты
Изображение
Изображение
Изображение
Свернуть


Последний раз редактировалось gecsogen 2011-01-20 18:31, всего редактировалось 1 раз.
Не в сети
Профиль  
 Добавлено: 2015-03-11 18:50 (спустя 4 года 1 месяц)
Стаж: 9 лет 1 месяц
Сообщений: 4
Поддайте скорости плиз
Не в сети
Профиль  
Начать новую темуОтветить на тему  [ Сообщений: 2 ] 
Вы не можете начинать темы
Вы не можете отвечать на сообщения
Вы не можете редактировать свои сообщения
Вы не можете удалять свои сообщения