Правила форума

  • В этом разделе создание новых тем Запрещено.
  • Для создания новых тем пользуйтесь Корневым разделом DVD и HD фильмы.
Начать новую темуОтветить на тему  [ Сообщений: 10 ] 
Торрент файл
Размер: 4.65 GB • Зарегистрирован: 5 лет 5 месяцев • Статус: # Сомнительно
Скачан: 463 раза • Желающих скачать: 0 • Поблагодарили: 55 раз
 Раздают: 0  |  0 KB/s  ]   Качают: 0  |  0 KB/s  ] 
 Полного источника не было 2 года 1 месяц 
Сообщения
 Добавлено: 2011-06-16 14:56
Top-releaser
Аватара пользователя
Стаж: 8 лет 9 месяцев
Сообщений: 479
Спасибок: 20187
Лайков: 16
Изображение

Hall Pass

Изображение


Год выпуска: 2011
Страна: Изображение США; New Line Cinema
Слоган: «Каждый имеет право налево»
Жанр: Мелодрама, комедия
Продолжительность: 01:45:22
Перевод: Профессиональный (дублированный) [Лицензия], Оригинал

Режиссёр: Бобби Фаррелли / Bobby Farrelly, Питер Фаррелли / Peter Farrelly

В ролях: Оуэн Уилсон, Джейсон Судейкис, Дженна Фишер, Кристина Эпплгейт, Никки Вилан, Ричард Дженкинс, Стефен Мерчант, Ларри Джо Кэмпбелл, Брюс Томас, Тайлер Хёхлин

Описание: Главный герой получает от своей супруги разрешение на свободные отношения с другими женщинами. Похожая ситуация возникает и в семье его лучшего друга. Когда жены героев также решают воспользоваться подобным «пропуском», история принимает новый оборот.

Качество: BDRip 720p R5
Формат: MKV

Видео: 1280x536 (2.35:1), 23.976 fps, h.264 ~4425 kbps avg, 0.269 bit/pixel
Аудио 1: 48 kHz, AC3 Dolby Digital, 3/2 (L,C,R,l,r) + LFE ch, ~384.00 kbps avg (Дубляж)
Аудио 2: 8 kHz, DTS, 3/2 (L,C,R,l,r) + LFE ch, 1510 kbps (Оригинал)
Изображение

Изображение

BDInfo

Общее
Уникальный идентификатор : 218055958436315442698624989151331018378 (0xA40C0CCC2CACF35AADA77B4CE376E68A)
Полное имя : C:\Users\Домашний\Desktop\Bezbrachnaja.nedelja.2011.[nntt]BDRip 720p.mkv
Формат : Matroska
Размер файла : 4,65 Гбайт
Продолжительность : 1 ч. 45 м.
Общий поток : 6319 Кбит/сек
Дата кодирования : UTC 2011-06-15 16:14:50
Программа кодирования : mkvmerge v3.4.0 ('Rapunzel') built on May 15 2010 09:38:20
Библиотека кодирования : libebml v0.8.0 + libmatroska v0.9.0

Видео
Идентификатор : 1
Формат : AVC
Формат/Информация : Advanced Video Codec
Профиль формата : High@L4.1
Параметр CABAC формата : Да
Параметр ReFrames формата : 8 кадры
Параметры GOP формата : M=1, N=51
Идентификатор кодека : V_MPEG4/ISO/AVC
Продолжительность : 1 ч. 45 м.
Битрейт : 4425 Кбит/сек
Ширина : 1280 пикс.
Высота : 536 пикс.
Соотношение сторон : 2,35:1
Частота кадров : 23,976 кадр/сек
Цветовое пространство : YUV
Подвыборка цветности : 4:2:0
Битовая глубина : 8 бит
Тип развёртки : Прогрессивная
Бит/(Пиксели*Кадры) : 0.269
Размер потока : 3,16 Гбайт (68%)
Библиотека кодирования : x264 core 114 r1913 5fd3dce
Настройки программы : cabac=1 / ref=8 / deblock=1:-1:-1 / analyse=0x3:0x133 / me=umh / subme=7 / psy=1 / psy_rd=1.00:0.10 / mixed_ref=1 / me_range=16 / chroma_me=1 / trellis=2 / 8x8dct=1 / cqm=0 / deadzone=21,11 / fast_pskip=0 / chroma_qp_offset=-3 / threads=12 / sliced_threads=0 / nr=0 / decimate=1 / interlaced=0 / constrained_intra=0 / bframes=3 / b_pyramid=2 / b_adapt=2 / b_bias=0 / direct=3 / weightb=1 / open_gop=0 / weightp=2 / keyint=250 / keyint_min=23 / scenecut=40 / intra_refresh=0 / rc_lookahead=50 / rc=2pass / mbtree=1 / bitrate=4425 / ratetol=1.0 / qcomp=0.60 / qpmin=0 / qpmax=69 / qpstep=4 / cplxblur=20.0 / qblur=0.5 / ip_ratio=1.40 / aq=1:1.00

Аудио #1
Идентификатор : 2
Формат : AC-3
Формат/Информация : Audio Coding 3
Расширение режима : CM (complete main)
Идентификатор кодека : A_AC3
Продолжительность : 1 ч. 45 м.
Вид битрейта : Постоянный
Битрейт : 384 Кбит/сек
Канал(ы) : 6 канала(ов)
Расположение каналов : Front: L C R, Side: L R, LFE
Частота : 48,0 КГц
Битовая глубина : 16 бит
Метод сжатия : С потерями
Размер потока : 289 Мбайт (6%)
Заголовок : Russian @ DD 5.1 @ 384 kbps
Язык : Russian

Аудио #2
Идентификатор : 3
Формат : DTS
Формат/Информация : Digital Theater Systems
Идентификатор кодека : A_DTS
Продолжительность : 1 ч. 45 м.
Вид битрейта : Постоянный
Битрейт : 1510 Кбит/сек
Канал(ы) : 6 канала(ов)
Расположение каналов : Front: L C R, Side: L R, LFE
Частота : 48,0 КГц
Битовая глубина : 24 бит
Метод сжатия : С потерями
Задержка видео : 11 мс.
Размер потока : 1,11 Гбайт (24%)
Заголовок : English @ DTS 5.1 @ 1510 kbps
Язык : English
Свернуть
Скриншоты

Изображение
Изображение
Изображение
Изображение
Изображение
Свернуть
_________________
Изображение
Изображение
Не в сети
Профиль  
 Добавлено: 2011-06-16 21:49 (спустя 6 часов)
Аватара пользователя
Стаж: 9 лет 3 месяца
Возраст: 42
Сообщений: 589
Спасибок: 11588
Лайков: 4
Отличный фильм оказался!
Не в сети
Профиль  
 Добавлено: 2011-06-20 22:01 (спустя 4 дня)
Стаж: 7 лет 3 месяца
Сообщений: 1
Да, офигенное кино)
Не в сети
Профиль  
 Добавлено: 2011-06-22 14:31 (спустя 1 день 16 часов)
Кинокомментатор
Аватара пользователя
Стаж: 9 лет 1 месяц
Сообщений: 1332
Лайков: 54
а что не прилепили?
_________________
Я ВКонтакте
Не в сети
Профиль  
 Добавлено: 2011-06-22 15:23 (спустя 51 минута)
Аватара пользователя
Стаж: 7 лет 4 месяца
Сообщений: 170
Лайков: 1
А что значит - статус: сомнительно? Качать то стоит, или лучше дождаться другого качества? :ne_znayu:
Не в сети
Профиль  
 Добавлено: 2011-06-23 21:27 (спустя 1 день 6 часов)
Аватара пользователя
Стаж: 7 лет 4 месяца
Сообщений: 13
Фильм просто шикарный, давненько так не смеялся, но фильм больше для нас - для мужиков, женщинам не понять этот фильм так, как его понимаем мы, но и они посмеются, а так очень легкая комедия, хоть немного и с пошлицой.
Не в сети
Профиль  
 Добавлено: 2011-06-24 08:59 (спустя 11 часов)
Кинокомментатор
Аватара пользователя
Стаж: 9 лет 1 месяц
Сообщений: 1332
Лайков: 54
не много))) по рассказам мне, пошлицы в фильме хватает:)))
_________________
Я ВКонтакте
Не в сети
Профиль  
 Добавлено: 2011-06-24 17:26 (спустя 8 часов)
Аватара пользователя
Стаж: 7 лет 4 месяца
Сообщений: 13
Вот я и говорю, фильм для мужиков))
Не в сети
Профиль  
 Добавлено: 2011-06-26 14:46 (спустя 1 день 21 час)
Кинокомментатор
Аватара пользователя
Стаж: 9 лет 1 месяц
Сообщений: 1332
Лайков: 54
нормалёк кино) да и качество в принципе порядочное;) всё вроде как норм с раздачей;)
кино про кризис среднего возраста) про секс измены и про то как ничего из этого не получаеца;) повседневные казусы) и каждодневные извращенья))) прикольно чё) 7 фильму легко пойдёт;) мне понравилось)
Не в сети
Профиль  
 Добавлено: 2011-09-28 09:44 (спустя 3 месяца 1 день)
Стаж: 6 лет 7 месяцев
Сообщений: 7
ржачный фильм
Не в сети
Профиль  
Начать новую темуОтветить на тему  [ Сообщений: 10 ] 
Вы не можете начинать темы
Вы не можете отвечать на сообщения
Вы не можете редактировать свои сообщения
Вы не можете удалять свои сообщения