Правила форума

  • В этом разделе создание новых тем Запрещено.
  • Для создания новых тем пользуйтесь Корневым разделом DVD и HD фильмы.
Начать новую темуОтветить на тему  [ Сообщений: 5 ] 
Торрент файл
Размер: 9.45 GB • Зарегистрирован: 5 лет 5 месяцев • Статус: Проверено
Скачан: 74 раза • Желающих скачать: 0 • Поблагодарили: 14 раз
 Раздают: 0  |  0 KB/s  ]   Качают: 0  |  0 KB/s  ] 
 Полного источника не было 1 год 7 месяцев 
Сообщения
 Добавлено: 2011-06-29 19:48
Модератор
Аватара пользователя
Стаж: 8 лет 1 месяц
Возраст: 20
Сообщений: 32130
Спасибок: 98571
Лайков: 80
Изображение

Безбрачная неделя / Hall Pass


Год выпуска: 2011
Страна: США
Слоган: «Каждый имеет право налево»

Жанр: мелодрама, комедия
Продолжительность: 01:51:34
Перевод: Дублированный (R5) / Любительский одноголосый (Ddok63)

Режиссёр: Бобби Фаррелли, Питер Фаррелли
Сценарист: Пит Джонс, Питер Фаррелли, Кевин Барнетт, ...
Продюсер: Марк Чарпентье, Бобби Фаррелли, Питер Фаррелли, ...
Оператор: Мэтью Ф. Леонетти
В ролях: Оуэн Уилсон, Джейсон Судейкис, Дженна Фишер, Кристина Эпплгейт, Никки Вилан, Ричард Дженкинс, Стефен Мерчант, Ларри Джо Кэмпбелл, Брюс Томас, Тайлер Хёхлин
Бюджет: $36 000 000
Сборы в США: $45 060 734
Сборы в России: $3 133 713
Сборы в мире: $83 160 734

Мировая премьера: 23 февраля 2011
Релиз на DVD: 30 июня 2011, «CP-Digital»
Описание: Главный герой получает от своей супруги разрешение на свободные отношения с другими женщинами. Похожая ситуация возникает и в семье его лучшего друга. Когда жены героев также решают воспользоваться подобным «пропуском», история принимает новый оборот.
Изображение
MPAA: Изображение - Лицам до 17 лет обязательно присутствие взрослого
Качество: BDRip 1080p R5
Формат: MKV
Кодек: H.264
Видео: 1920X792, 23.976 fps, 8730 Kbps
Звук:
• Russian: AC3, 384 Kbps (6 ch)
• Russian: DTS-HD MA, 1510 Kbps (6 ch)
• English: DTS-HD MA, 1510 Kbps (6 ch)
Субтитры: • Russian (forced)
Знаете ли Вы, что...
  • На роль Пейдж первоначально планировалась Аманда Байнс, но в ходе возникших разногласий была заменена актрисой Александрой Даддарио.
Свернуть
MI
General
Complete name : Hall.Pass.2011.D.BDRip.1080p.EXTENDED.mkv
Format : Matroska
File size : 9.01 GiB
Duration : 1h 51mn
Overall bit rate : 11.6 Mbps
Encoded date : UTC 2011-06-19 13:06:59
Writing application : mkvmerge v3.4.0 ('Rapunzel') сборка от May 15 2010 09:38:20
Writing library : libebml v0.8.0 + libmatroska v0.9.0
Video
ID : 1
Format : AVC
Format/Info : Advanced Video Codec
Format profile : High@L4.1
Format settings, CABAC : Yes
Format settings, ReFrames : 5 frames
Format settings, GOP : M=1, N=51
Codec ID : V_MPEG4/ISO/AVC
Duration : 1h 51mn
Bit rate : 9 666 Kbps
Width : 1 920 pixels
Height : 798 pixels
Display aspect ratio : 2.40:1
Frame rate : 23.976 fps
Color space : YUV
Chroma subsampling : 4:2:0
Bit depth : 8 bits
Scan type : Progressive
Bits/(Pixel*Frame) : 0.263
Stream size : 7.35 GiB (82%)
Title : Hall.Pass.2011.BluRay.1080p.DTS.x264-CHD
Writing library : x264 core 114 r1924 08d04a4
Encoding settings : cabac=1 / ref=5 / deblock=1:-3:-3 / analyse=0x3:0x113 / me=umh / subme=10 / psy=1 / psy_rd=1.05:0.10 / mixed_ref=1 / me_range=32 / chroma_me=1 / trellis=2 / 8x8dct=1 / cqm=2 / deadzone=21,11 / fast_pskip=0 / chroma_qp_offset=-2 / threads=12 / sliced_threads=0 / nr=0 / decimate=1 / interlaced=0 / constrained_intra=0 / bframes=6 / b_pyramid=2 / b_adapt=2 / b_bias=0 / direct=3 / weightb=1 / open_gop=0 / weightp=2 / keyint=250 / keyint_min=23 / scenecut=40 / intra_refresh=0 / rc_lookahead=50 / rc=2pass / mbtree=1 / bitrate=9666 / ratetol=1.0 / qcomp=0.70 / qpmin=1 / qpmax=63 / qpstep=4 / cplxblur=20.0 / qblur=0.5 / vbv_maxrate=40000 / vbv_bufsize=40000 / nal_hrd=none / ip_ratio=1.40 / aq=2:0.70
Language : English
Audio #1
ID : 2
Format : AC-3
Format/Info : Audio Coding 3
Mode extension : CM (complete main)
Codec ID : A_AC3
Duration : 1h 51mn
Bit rate mode : Constant
Bit rate : 384 Kbps
Channel(s) : 6 channels
Channel positions : Front: L C R, Side: L R, LFE
Sampling rate : 48.0 KHz
Bit depth : 16 bits
Compression mode : Lossy
Stream size : 306 MiB (3%)
Title : R5
Language : Russian
Audio #2
ID : 3
Format : DTS
Format/Info : Digital Theater Systems
Codec ID : A_DTS
Duration : 1h 51mn
Bit rate mode : Constant
Bit rate : 1 510 Kbps
Channel(s) : 6 channels
Channel positions : Front: L C R, Side: L R, LFE
Sampling rate : 48.0 KHz
Bit depth : 24 bits
Compression mode : Lossy
Stream size : 1.18 GiB (13%)
Title : Original
Language : English
Text
ID : 4
Format : UTF-8
Codec ID : S_TEXT/UTF8
Codec ID/Info : UTF-8 Plain Text
Title : English
Language : English
Свернуть
Скриншоты
Изображение

Изображение

Изображение
Свернуть


Последний раз редактировалось Костян236 2011-06-30 08:41, всего редактировалось 1 раз.
Не в сети
Профиль  
 Добавлено: 2011-06-29 23:57 (спустя 4 часа)
Top-releaser
Аватара пользователя
Стаж: 8 лет 7 месяцев
Сообщений: 1286
Спасибок: 3420
Лайков: 7
Опять информации нет. 2-й релиз в прилепленых и без инфы об актёрах и создателях филма. Модерам на правила плевать видимо. Скоро одно название писать будут, и ссылку на кинопоиск, а там сами посмотрите))))
Не в сети
Профиль  
 Добавлено: 2011-06-30 08:37 (спустя 8 часов)
Аватара пользователя
Стаж: 8 лет 3 месяца
Возраст: 43
Сообщений: 3290
Спасибок: 21012
Лайков: 3
Shamman
спасибо за информацию :) отлепляю
а и правда: исполнителей ролей нетууу :par_don:
_________________
Изображение
Не в сети
Профиль  
 Добавлено: 2011-06-30 08:41 (спустя 4 минуты)
Модератор
Аватара пользователя
Стаж: 8 лет 1 месяц
Возраст: 20
Сообщений: 32130
Спасибок: 98571
Лайков: 80
теперь есть. )
Не в сети
Профиль  
 Добавлено: 2011-06-30 08:43 (спустя 2 минуты)
Аватара пользователя
Стаж: 8 лет 3 месяца
Возраст: 43
Сообщений: 3290
Спасибок: 21012
Лайков: 3
Костян236
:-ok-:
_________________
Изображение
Не в сети
Профиль  
Начать новую темуОтветить на тему  [ Сообщений: 5 ] 
Вы не можете начинать темы
Вы не можете отвечать на сообщения
Вы не можете редактировать свои сообщения
Вы не можете удалять свои сообщения
cron