Правила форума

  • В этом разделе создание новых тем Запрещено.
  • Для создания новых тем пользуйтесь Корневым разделом DVD и HD фильмы.
Начать новую темуОтветить на тему  [ Сообщений: 7 ] 
Торрент файл
Размер: 16.21 GB • Зарегистрирован: 5 лет 5 месяцев • Статус: Проверено
Скачан: 89 раз • Желающих скачать: 0 • Поблагодарили: 14 раз
 Раздают: 0  |  0 KB/s  ]   Качают: 0  |  0 KB/s  ] 
 Полного источника не было 6 месяцев 
Сообщения
 Добавлено: 2011-06-30 08:26
Модератор
Аватара пользователя
Стаж: 8 лет 1 месяц
Возраст: 20
Сообщений: 32130
Спасибок: 98569
Лайков: 80
Изображение

Безбрачная неделя / Hall Pass


Год выпуска: 2011
Страна: США
Слоган: «Каждый имеет право налево»

Жанр: мелодрама, комедия
Продолжительность: 01:51:34
Перевод: Дублированный (R5) / Любительский одноголосый (Ddok63)

Режиссёр: Бобби Фаррелли, Питер Фаррелли
Сценарист: Пит Джонс, Питер Фаррелли, Кевин Барнетт, ...
Продюсер: Марк Чарпентье, Бобби Фаррелли, Питер Фаррелли, ...
Оператор: Мэтью Ф. Леонетти
В ролях: Оуэн Уилсон, Джейсон Судейкис, Дженна Фишер, Кристина Эпплгейт, Никки Вилан, Ричард Дженкинс, Стефен Мерчант, Ларри Джо Кэмпбелл, Брюс Томас, Тайлер Хёхлин
Бюджет: $36 000 000
Сборы в США: $45 060 734
Сборы в России: $3 133 713
Сборы в мире: $83 160 734

Мировая премьера: 23 февраля 2011
Релиз на DVD: 30 июня 2011, «CP-Digital»
Описание: Главный герой получает от своей супруги разрешение на свободные отношения с другими женщинами. Похожая ситуация возникает и в семье его лучшего друга. Когда жены героев также решают воспользоваться подобным «пропуском», история принимает новый оборот.
Изображение
MPAA: Изображение - Лицам до 17 лет обязательно присутствие взрослого
Качество: BDRemux 1080p R5
Формат: MKV
Источник: Hall Pass 2011 1080p Blu-ray AVC DTS-HD MA 5.1-HDChina
Видео: AVC,1920x1080,18.1 Mbps, 23.976 fps
Аудио 1: Russian:48 kHz, AC3, 3/2 (L,C,R,l,r) + LFE ch, ~384.00 kbps avg
Аудио 2: Ukrainian:48 kHz, AC3, 3/2 (L,C,R,l,r) + LFE ch, ~384.00 kbps avg
Аудио 3: English / DTS-HD Master Audio / 5.1 / 48 kHz / 3348 kbps / 24-bit (DTS Core: 5.1 / 48 kHz / 1509 kbps / 24-bit)
Чаптеры:есть
Знаете ли Вы, что...
  • На роль Пейдж первоначально планировалась Аманда Байнс, но в ходе возникших разногласий была заменена актрисой Александрой Даддарио.
Свернуть
MI
General
Unique ID : 221495674062821231740911228602770753150 (0xA6A283DF198A3B049BE94329DDC3867E)
Complete name : D:\Downloads\Видео\Hall Pass [Theatrical Cut] (2011) 1080p BD-Remux.mkv
Format : Matroska
File size : 16.2 GiB
Duration : 1h 45mn
Overall bit rate : 22.0 Mbps
Movie name : -Talian-
Encoded date : UTC 2011-06-29 07:53:45
Writing application : mkvmerge v3.3.0 ('Language') сборка от May 14 2010 17:11:50
Writing library : libebml v0.8.0 + libmatroska v0.9.0
Video
ID : 1
Format : AVC
Format/Info : Advanced Video Codec
Format profile : High@L4.1
Format settings, CABAC : Yes
Format settings, ReFrames : 2 frames
Codec ID : V_MPEG4/ISO/AVC
Duration : 1h 45mn
Bit rate mode : Variable
Bit rate : 18.1 Mbps
Width : 1 920 pixels
Height : 1 080 pixels
Display aspect ratio : 16:9
Frame rate : 23.976 fps
Color space : YUV
Chroma subsampling : 4:2:0
Bit depth : 8 bits
Scan type : Progressive
Bits/(Pixel*Frame) : 0.365
Stream size : 13.4 GiB (82%)
Title : Hall Pass [Theatrical Cut] (2011) 1080p BD-Remux
Language : English
Audio #1
ID : 2
Format : AC-3
Format/Info : Audio Coding 3
Mode extension : CM (complete main)
Codec ID : A_AC3
Duration : 1h 45mn
Bit rate mode : Constant
Bit rate : 384 Kbps
Channel(s) : 6 channels
Channel positions : Front: L C R, Side: L R, LFE
Sampling rate : 48.0 KHz
Bit depth : 16 bits
Compression mode : Lossy
Stream size : 289 MiB (2%)
Title : DUB-R5
Language : Russian
Audio #2
ID : 3
Format : AC-3
Format/Info : Audio Coding 3
Mode extension : CM (complete main)
Codec ID : A_AC3
Duration : 1h 45mn
Bit rate mode : Constant
Bit rate : 384 Kbps
Channel(s) : 6 channels
Channel positions : Front: L C R, Side: L R, LFE
Sampling rate : 48.0 KHz
Bit depth : 16 bits
Compression mode : Lossy
Stream size : 289 MiB (2%)
Title : DUB-R5
Language : Ukrainian
Audio #3
ID : 4
Format : DTS
Format/Info : Digital Theater Systems
Format profile : MA / Core
Codec ID : A_DTS
Duration : 1h 45mn
Bit rate mode : Variable
Bit rate : 2 671 Kbps / 1 510 Kbps
Channel(s) : 6 channels
Channel positions : Front: L C R, Side: L R, LFE
Sampling rate : 48.0 KHz
Bit depth : 24 bits
Compression mode : Lossless / Lossy
Title : Original
Language : English
Text #1
ID : 5
Format : UTF-8
Codec ID : S_TEXT/UTF8
Codec ID/Info : UTF-8 Plain Text
Title : Sub
Language : Russian
Text #2
ID : 6
Format : UTF-8
Codec ID : S_TEXT/UTF8
Codec ID/Info : UTF-8 Plain Text
Title : Sub
Language : English
Menu
00:00:00.000 : 00:00:00.000
00:10:15.197 : 00:10:15.197
00:22:40.192 : 00:22:40.192
00:30:21.528 : 00:30:21.528
00:40:58.164 : 00:40:58.164
00:50:11.298 : 00:50:11.298
01:00:39.052 : 01:00:39.052
01:10:24.720 : 01:10:24.720
01:19:12.622 : 01:19:12.622
01:31:25.186 : 01:31:25.186
01:34:28.746 : 01:34:28.746
01:45:22.231 : :01:45:22.231
Свернуть
Скриншоты
Изображение

Изображение

Изображение
Свернуть


Последний раз редактировалось Костян236 2011-06-30 08:41, всего редактировалось 1 раз.
Не в сети
Профиль  
 Добавлено: 2011-06-30 08:39 (спустя 13 минут)
Аватара пользователя
Стаж: 8 лет 3 месяца
Возраст: 43
Сообщений: 3290
Спасибок: 21012
Лайков: 3
Костян236
напиши кто в ролях :)
_________________
Изображение
Не в сети
Профиль  
 Добавлено: 2011-06-30 08:40 (спустя 34 секунды)
Модератор
Аватара пользователя
Стаж: 8 лет 1 месяц
Возраст: 20
Сообщений: 32130
Спасибок: 98569
Лайков: 80
Иванишко
ок. Я не специально, это трабла флэш-релиза. ))
Не в сети
Профиль  
 Добавлено: 2011-06-30 08:41 (спустя 1 минута)
Аватара пользователя
Стаж: 8 лет 3 месяца
Возраст: 43
Сообщений: 3290
Спасибок: 21012
Лайков: 3
Костян236
это опять что-нибудь кинопоиск намудрил :(
_________________
Изображение
Не в сети
Профиль  
 Добавлено: 2011-06-30 08:43 (спустя 2 минуты)
Модератор
Аватара пользователя
Стаж: 8 лет 1 месяц
Возраст: 20
Сообщений: 32130
Спасибок: 98569
Лайков: 80

Иванишко:

Костян236
это опять что-нибудь кинопоиск намудрил :(
Ну да, и с описанием теперь траблы есть, переписывать плагины я больше не буду. ))
Не в сети
Профиль  
 Добавлено: 2011-06-30 08:45 (спустя 1 минута)
Аватара пользователя
Стаж: 8 лет 3 месяца
Возраст: 43
Сообщений: 3290
Спасибок: 21012
Лайков: 3
Костян236
на сайте разработчика флэш релиза нужно скачать исправление, если конечно его еще сделали :hi_hi_hi:
_________________
Изображение
Не в сети
Профиль  
 Добавлено: 2011-06-30 08:49 (спустя 4 минуты)
Модератор
Аватара пользователя
Стаж: 8 лет 1 месяц
Возраст: 20
Сообщений: 32130
Спасибок: 98569
Лайков: 80
Дата публикации 11.04.2010
:-D
Не в сети
Профиль  
Начать новую темуОтветить на тему  [ Сообщений: 7 ] 
Вы не можете начинать темы
Вы не можете отвечать на сообщения
Вы не можете редактировать свои сообщения
Вы не можете удалять свои сообщения