Правила форума

  • В этом разделе создание новых тем Запрещено.
  • Для создания новых тем пользуйтесь Корневым разделом DVD и HD фильмы.
Начать новую темуОтветить на тему  [ 1 сообщение ] 
Торрент файл
Размер: 7.45 GB • Зарегистрирован: 4 года 1 месяц • Статус: T Временный релиз
Скачан: 55 раз • Желающих скачать: 0 • Поблагодарили: 14 раз
 Раздают: 0  |  0 KB/s  ]   Качают: 0  |  0 KB/s  ] 
 Полного источника не было 3 года 2 месяца 
Сообщения
 Добавлено: 2012-10-29 18:24
Модератор
Аватара пользователя
Стаж: 8 лет 1 месяц
Сообщений: 1991
Спасибок: 129865
Лайков: 20
Безопасность не гарантируется / Safety Not Guaranteed

Изображение
Год выпуска: 2012
Страна: Изображение США
Жанр: комедия
Продолжительность:
01:25:47

Перевод: Любительский (одноголосый) (меломан)

Режиссер: Колин Треворроу
Сценарий: Дерек Коннолли
Продюсер: Марк Тёртлтауб, Дерек Коннолли, Стефани Лэнгофф, Питер Сараф, Колин Треворроу
Оператор: Бенджамин Касулке
Композитор: Райан Миллер

В ролях:
Обри Плаза (Darius), Бейзил Харрис (Restaurant Manager), Мэри Линн Райскаб (Bridget), Джэйк М. Джонсон (Jeff), Каран Сони (Arnau), Дэвид Шульц (Coworker), Джефф Гарлин (Mr. Britt), Марк Дюпласс (Kenneth), Уильям Холл мл. (Shannon), Элис Хунг (Shift Manager), Хассан Кристос Мессия (Boyfriend in car), Кели Шурман-Дарби (Girlfriend in car)

Описание: Троим журналистам поручают взять интервью у парня, который разместил весьма странное объявление о том, что ищет напарника для путешествий во времени.


Изображение: 6.946 (195)
Изображение: 7.20 (9 055)

MPAA: Изображение - Лицам до 17 лет обязательно присутствие взрослого

Доп. Информация
Бюджет: $750 000
Сборы в США: $4 010 957
Мировая премьера: 22 января 2012

Свернуть


Качество: BDRip 1080p

Формат: MKV
Видео: AVC; 1920x816 (2.35:1); 10752 Kbps; 23,976 fps; 0,286 bpp
Аудио №1: русский; AC3; 192 Kbps; CBR; 2 ch; 16 bit
Аудио №2: английский; DTS; 1510 Kbps; CBR; 6 ch; 24 bit
Субтитры №1: русские
Субтитры №2: русские
Субтитры №3: английские



BDInfo
Общее
Уникальный идентификатор : 206774367007559888409094663175003153566 (0x9B8F4B655869F1CCB94049854823A49E)
Полное имя : C:\Safety Not Guaranteed.2012.BDRip.1080p.mkv
Формат : Matroska
Версия формата : Version 2
Размер файла : 7,45 Гбайт
Продолжительность : 1 ч. 25 м.
Общий поток : 12,4 Мбит/сек
Дата кодирования : UTC 2012-10-25 19:26:03
Программа кодирования : mkvmerge v5.8.0 ('No Sleep / Pillow') built on Sep 2 2012 15:37:04
Библиотека кодирования : libebml v1.2.3 + libmatroska v1.3.0
Видео
Идентификатор : 1
Формат : AVC
Формат/Информация : Advanced Video Codec
Профиль формата : High@L4.1
Параметр CABAC формата : Да
Параметр ReFrames формата : 5 кадров
Идентификатор кодека : V_MPEG4/ISO/AVC
Продолжительность : 1 ч. 25 м.
Битрейт : 10,8 Мбит/сек
Ширина : 1920 пикселей
Высота : 816 пикселей
Соотношение сторон : 2,35:1
Режим частоты кадров : Постоянный
Частота кадров : 23,976 кадра/сек
Цветовое пространство : YUV
Субдискретизация насыщенности : 4:2:0
Битовая глубина : 8 бит
Тип развёртки : Прогрессивная
Бит/(Пиксели*Кадры) : 0.286
Размер потока : 6,29 Гбайт (84%)
Библиотека кодирования : x264 core 128 r2216 198a7ea
Настройки программы : cabac=1 / ref=5 / deblock=1:-2:-2 / analyse=0x3:0x113 / me=umh / subme=11 / psy=1 / psy_rd=1.07:0.15 / mixed_ref=1 / me_range=48 / chroma_me=1 / trellis=2 / 8x8dct=1 / cqm=0 / deadzone=21,11 / fast_pskip=0 / chroma_qp_offset=-3 / threads=12 / lookahead_threads=2 / sliced_threads=0 / slices=4 / nr=0 / decimate=1 / interlaced=0 / bluray_compat=0 / constrained_intra=0 / bframes=7 / b_pyramid=2 / b_adapt=2 / b_bias=0 / direct=3 / weightb=1 / open_gop=0 / weightp=2 / keyint=240 / keyint_min=23 / scenecut=40 / intra_refresh=0 / rc_lookahead=180 / rc=2pass / mbtree=1 / bitrate=10752 / ratetol=1.0 / qcomp=0.60 / qpmin=0 / qpmax=69 / qpstep=4 / cplxblur=20.0 / qblur=0.5 / vbv_maxrate=50000 / vbv_bufsize=40000 / nal_hrd=none / ip_ratio=1.40 / aq=1:1.00
Язык : English
Default : Да
Forced : Нет
Основные цвета : BT.709
Характеристики трансфера : BT.709
Коэффициенты матрицы : BT.709
Аудио #1
Идентификатор : 2
Формат : AC-3
Формат/Информация : Audio Coding 3
Расширение режима : CM (complete main)
Параметр Endianness формата : Big
Идентификатор кодека : A_AC3
Продолжительность : 1 ч. 25 м.
Вид битрейта : Постоянный
Битрейт : 192 Кбит/сек
Каналы : 2 канала
Расположение каналов : Front: L R
Частота : 48,0 КГц
Битовая глубина : 16 бит
Метод сжатия : С потерями
Размер потока : 118 Мбайт (2%)
Заголовок : VO (меломан)
Язык : Russian
Default : Да
Forced : Нет
Аудио #2
Идентификатор : 3
Формат : DTS
Формат/Информация : Digital Theater Systems
Идентификатор кодека : A_DTS
Продолжительность : 1 ч. 25 м.
Вид битрейта : Постоянный
Битрейт : 1510 Кбит/сек
Каналы : 6 каналов
Расположение каналов : Front: L C R, Side: L R, LFE
Частота : 48,0 КГц
Битовая глубина : 24 бит
Метод сжатия : С потерями
Размер потока : 926 Мбайт (12%)
Заголовок : Original
Язык : English
Default : Нет
Forced : Нет
Текст #1
Идентификатор : 4
Формат : UTF-8
Идентификатор кодека : S_TEXT/UTF8
Идентификатор кодека/Информация : UTF-8 Plain Text
Заголовок : ak79
Язык : Russian
Default : Нет
Forced : Нет
Текст #2
Идентификатор : 5
Формат : UTF-8
Идентификатор кодека : S_TEXT/UTF8
Идентификатор кодека/Информация : UTF-8 Plain Text
Заголовок : Dr.pro
Язык : Russian
Default : Нет
Forced : Нет
Текст #3
Идентификатор : 6
Формат : UTF-8
Идентификатор кодека : S_TEXT/UTF8
Идентификатор кодека/Информация : UTF-8 Plain Text
Заголовок : Original
Язык : English
Default : Нет
Forced : Нет
Меню
00:00:00.000 : en:CHAPTER01
00:05:57.190 : en:CHAPTER02
00:12:43.680 : en:CHAPTER03
00:18:08.379 : en:CHAPTER04
00:23:40.002 : en:CHAPTER05
00:26:50.192 : en:CHAPTER06
00:31:09.409 : en:CHAPTER07
00:34:22.769 : en:CHAPTER08
00:38:21.549 : en:CHAPTER09
00:46:51.267 : en:CHAPTER10
00:51:50.024 : en:CHAPTER11
00:57:20.395 : en:CHAPTER12
01:05:30.677 : en:CHAPTER13
01:09:57.610 : en:CHAPTER14
01:15:03.332 : en:CHAPTER15
01:17:46.829 : en:CHAPTER16
Свернуть
Скриншоты
Изображение
Изображение
Изображение
Свернуть

_________________
Себе ты можешь не качать, но раздавать другим обязан!
Не в сети
Профиль  
Начать новую темуОтветить на тему  [ 1 сообщение ] 
Вы не можете начинать темы
Вы не можете отвечать на сообщения
Вы не можете редактировать свои сообщения
Вы не можете удалять свои сообщения