Правила форума

  • В этом разделе создание новых тем Запрещено.
  • Для создания новых тем пользуйтесь Корневым разделом DVD и HD фильмы.
Начать новую темуОтветить на тему  [ 1 сообщение ] 
Торрент файл
Размер: 5.55 GB • Зарегистрирован: 4 года 9 месяцев • Статус: Проверено
Скачан: 16 раз • Желающих скачать: 0 • Поблагодарили: 1 раз
 Раздают: 0  |  0 KB/s  ]   Качают: 0  |  0 KB/s  ] 
 Полного источника не было 3 года 2 месяца 
Сообщения
 Добавлено: 2012-03-01 21:41
Книголюб
Аватара пользователя
Стаж: 7 лет 2 месяца
Сообщений: 2823
Спасибок: 48823
Лайков: 73
Безумцы
The Crazies

Изображение


Год выпуска: 2010
Страна: США, ОАЭ
Слоган: «Fear Thy Neighbor»
Жанр: ужасы, триллер
Продолжительность: 01:40:44
Перевод: Профессиональный (многоголосый закадровый)

Режиссёр: Брек Айснер
В ролях: Тимоти Олифант, Рада Митчел, Джо Андерсон, Даниэль Панабэйкер, Кристи Линн Смит, Бретт Рикаби, Престон Бэйли, Джон Эйлуорд, Джо Риган, Гленн Моршауэр
Описание: В окрестностях небольшого городка падает самолёт, на борту которого чрезвычайно опасный вирус. Зараза попадает в водную систему города, люди один за другим «заболевают» и начинают яростно набрасываться на всех подряд. Военные оперативно запирают город на карантин, периодически отстреливая зараженных.
Рейтинг MPAA: Рейтинг R (Подростки до 17 лет допускаются на фильм только в сопровождении одного из родителей)
Мировая премьера: 23 февраля 2010
Премьера в России: 25 марта 2010, «Каскад»
Изображение 6.470 12 078

Качество: BQRip 720p
Формат: MKV
Видео кодек: H264
Аудио кодек: AC3 (Dolby Digital)
Видео: 1280x534 (2.40:1) at 23.976 fps, x264, ~4519 kbps
Аудио #1: Русский: 48 kHz, DTS, 3/2 (L,C,R,l,r) + LFE ch, ~1536.00 kbps
Аудио #2: Английски: 48 kHz, DTS, 3/2 (L,C,R,l,r) + LFE ch, ~1536.00 kbps
Аудио #3: Английский: 48 kHz, AC3, 2/0 (L,R) ch, ~192.00 kbps avg |Director's Commentary
MediaInfo
General
Unique ID : 212166861525820774070634686327581263597 (0x9F9DD9E70EFDD3EB844889DDC45F46ED)
Complete name : D:\The.Crazies.2010..ru.mkv
Format : Matroska
Format version : Version 2
File size : 5.55 GiB
Duration : 1h 40mn
Overall bit rate mode : Variable
Overall bit rate : 7 887 Kbps
Movie name : The Crazies (2010) - Release for HDCLUB by -= Andrew Placid =-
Encoded date : UTC 2010-06-27 00:00:26
Writing application : mkvmerge v4.0.0 ('The Stars were mine') сборка от Jun 6 2010 16:18:42
Writing library : libebml v1.0.0 + libmatroska v1.0.0

Video
ID : 1
Format : AVC
Format/Info : Advanced Video Codec
Format profile : High@L4.1
Format settings, CABAC : Yes
Format settings, ReFrames : 10 frames
Codec ID : V_MPEG4/ISO/AVC
Duration : 1h 40mn
Bit rate mode : Variable
Bit rate : 4 519 Kbps
Maximum bit rate : 40.0 Mbps
Width : 1 280 pixels
Height : 534 pixels
Display aspect ratio : 2.40:1
Frame rate : 23.976 fps
Color space : YUV
Chroma subsampling : 4:2:0
Bit depth : 8 bits
Scan type : Progressive
Bits/(Pixel*Frame) : 0.276
Stream size : 3.18 GiB (57%)
Title : Release for HDCLUB by -= Andrew Placid =-
Writing library : x264 core 98 r1649kMod 20cbe10
Encoding settings : cabac=1 / ref=10 / deblock=1:-3:-3 / analyse=0x3:0x113 / me=umh / subme=10 / psy=1 / psy_rd=1.00:0.00 / mixed_ref=1 / me_range=32 / chroma_me=1 / trellis=2 / 8x8dct=1 / cqm=0 / deadzone=21,11 / fast_pskip=0 / chroma_qp_offset=-2 / threads=6 / sliced_threads=0 / nr=0 / decimate=0 / interlaced=0 / constrained_intra=0 / bframes=9 / b_pyramid=2 / b_adapt=2 / b_bias=0 / direct=1 / weightb=1 / weightp=2 / keyint=250 / keyint_min=25 / scenecut=40 / intra_refresh=0 / rc=crf / mbtree=0 / crf=16.7000 / qcomp=0.60 / qpmin=10 / qpmax=51 / qpstep=4 / ip_ratio=1.40 / pb_ratio=1.30 / aq=1:0.8
Language : English
Default : No
Forced : No

Audio #1
ID : 2
Format : DTS
Format/Info : Digital Theater Systems
Codec ID : A_DTS
Duration : 1h 40mn
Bit rate mode : Constant
Bit rate : 1 510 Kbps
Channel(s) : 6 channels
Channel positions : Front: L C R, Side: L R, LFE
Sampling rate : 48.0 KHz
Bit depth : 24 bits
Compression mode : Lossy
Stream size : 1.06 GiB (19%)
Title : DTS 5.1ch 1536 kbps [Дубляж]
Language : Russian
Default : No
Forced : No

Audio #2
ID : 3
Format : DTS
Format/Info : Digital Theater Systems
Codec ID : A_DTS
Duration : 1h 40mn
Bit rate mode : Constant
Bit rate : 1 510 Kbps
Channel(s) : 6 channels
Channel positions : Front: L C R, Side: L R, LFE
Sampling rate : 48.0 KHz
Bit depth : 16 bits
Compression mode : Lossy
Stream size : 1.06 GiB (19%)
Title : DTS 5.1ch 1536 kbps [Оригинал]
Language : English
Default : No
Forced : No

Audio #3
ID : 4
Format : AC-3
Format/Info : Audio Coding 3
Mode extension : CM (complete main)
Codec ID : A_AC3
Duration : 1h 40mn
Bit rate mode : Constant
Bit rate : 192 Kbps
Channel(s) : 2 channels
Channel positions : Front: L R
Sampling rate : 48.0 KHz
Bit depth : 16 bits
Compression mode : Lossy
Stream size : 138 MiB (2%)
Title : AC3 2.0ch 192 kbps [Комментарии]
Language : English
Default : No
Forced : No

Text #1
ID : 5
Format : UTF-8
Codec ID : S_TEXT/UTF8
Codec ID/Info : UTF-8 Plain Text
Language : Russian
Default : No
Forced : No

Text #2
ID : 6
Format : UTF-8
Codec ID : S_TEXT/UTF8
Codec ID/Info : UTF-8 Plain Text
Language : English
Default : No
Forced : No

Menu
00:00:00.000 : en:Death on the Diamond/Main Title
00:05:01.175 : en:"He's Not Right"
00:11:24.392 : en:Burning Down the House
00:17:18.287 : en:Codename: Trixie
00:28:02.472 : en:Containment Protocol
00:35:28.543 : en:Prisoners of Madness
00:42:34.551 : en:Hell Town
00:53:03.680 : en:No Place Like Home
01:00:07.812 : en:Drive-Thru Ambush
01:13:30.322 : en:"So Let It Mean Something"
01:16:27.165 : en:Last Exit For the Lost
01:33:04.996 : en:End Credits

Свернуть

Скриншоты
Изображение
Изображение
Изображение
Свернуть
Не в сети
Профиль  
Начать новую темуОтветить на тему  [ 1 сообщение ] 
Вы не можете начинать темы
Вы не можете отвечать на сообщения
Вы не можете редактировать свои сообщения
Вы не можете удалять свои сообщения