Правила форума

  • В этом разделе создание новых тем Запрещено.
  • Для создания новых тем пользуйтесь Корневым разделом DVD и HD фильмы.
Начать новую темуОтветить на тему  [ 1 сообщение ] 
Торрент файл
Размер: 9.31 GB • Зарегистрирован: 4 года 2 месяца • Статус: Проверено
Скачан: 20 раз • Желающих скачать: 0 • Поблагодарили: 14 раз
 Раздают: 0  |  0 KB/s  ]   Качают: 0  |  0 KB/s  ] 
 Полного источника не было 3 месяца 24 дня 
Сообщения
 Добавлено: 2012-10-05 17:44
Top-releaser
Аватара пользователя
Стаж: 6 лет 7 месяцев
Сообщений: 2078
Спасибок: 3230
Лайков: 9
Изображение

Безумный Макс 2: Воин дороги
Mad Max 2


Год выпуска: 1981
Страна: Австралия
Слоган: «When all that's left is one last chance, pray that he's still out there ... somewhere!»
Жанр: боевик, триллер, приключения
Продолжительность: 01:35:34
Перевод: Профессиональный (полное дублирование)
Режиссер: Джордж Миллер
Сценарий: Терри Хэйес, Джордж Миллер, Брайан Ханнант
Продюсер: Байрон Кеннеди
Оператор: Дин Семлер
Композитор: Брайан Мэй
В ролях: Мэл Гибсон, Брюс Спенс, Майкл Престон, Макс Фиппс, Вернон Уэллс, Кьелль Нилссон, Эмиль Минти, Вирджиния Хей, Уильям Заппа, Арки Уайтели, Стив Дж. Спирс, Сид Хейлен
Бюджет: AUD 4 000 000
Сборы в США: $23 667 907
Мировая премьера: 24 декабря 1981
Релиз на DVD: 7 апреля 2011, «ВС трейд»
Описание: Катастрофа пострашнее ядерной войны постигла нашу цивилизацию. Страшный энергетический кризис парализовал города, пути сообщения - одним словом, все. За топливо теперь дерутся любыми средствами. Потому что там, где бензин, - там жизнь. Одинокий водитель Макс как раз и бороздит пустоши далекой Австралии в поисках горючего. Повсюду брошенные жилища, машины, разный скарб. Наконец Макс находит поселение, превращенное в укрепленный лагерь со складами горючего. Исхудавшие, измученные люди как могут охраняют то, что им принадлежит. И вот, в довершение всех бед, на лагерь нападают враги, свирепые панки и байкеры под предводительством некоего Гумунгуса, садиста и душегуба. И тогда Макс вступает в схватку.

Изображение User Rating: 7.677 (8 248)
Изображение User Rating: 7.60 (62 977)
MPAA: R - Лицам до 17 лет обязательно присутствие взрослого
Качество: BDRip, 1080p
Формат: Matroska
Видео: AVC; 1908x796 (2.35:1); 10987 Kbps; 23,976 fps; 0,302 bit/pixel
Аудио №1: Russian; AC3; 384 Kbps; CBR; 6 ch - полное дублирование
Аудио №2: Russian; AC3; 384 Kbps; CBR; 6 ch - многоголосый, закадровый - Киномания
Аудио №3: Russian; AC3; 640 Kbps; CBR; 6 ch - одноголосый, Гоблин
Аудио №4: Russian; AC3; 640 Kbps; CBR; 6 ch - одноголосый, Михалёв
Аудио №5: English; AC3; 640 Kbps; CBR; 6 ch

Субтитры: Russian, English, Czech, Finnish, French, German, Greek, Hungarian, Portuguese, Spanish

MediaInfo
Общее
Уникальный идентификатор : 232628340217958901210819176294378580901 (0xAF0296B0B5DD5E0D8E4BD04DE2032BA5)
Полное имя : Z:\WWW\TR-Downloads\Mad.Max.2.The.Road.Warrior.1080p[R.G.Daredevil].mkv
Формат : Matroska
Версия формата : Version 1
Размер файла : 9,31 Гбайт
Продолжительность : 1 ч. 35 м.
Общий поток : 14,0 Мбит/сек
Дата кодирования : UTC 2008-05-22 12:41:50
Программа кодирования : mkvmerge v2.2.0 ('Turn It On Again') built on Mar 10 2008 10:55:12
Библиотека кодирования : libebml v0.7.7 + libmatroska v0.8.1

Видео
Идентификатор : 1
Формат : AVC
Формат/Информация : Advanced Video Codec
Профиль формата : High@L4.1
Параметр CABAC формата : Да
Параметр ReFrames формата : 5 кадров
Идентификатор кодека : V_MPEG4/ISO/AVC
Продолжительность : 1 ч. 35 м.
Битрейт : 11,3 Мбит/сек
Ширина : 1908 пикселей
Высота : 796 пикселей
Соотношение сторон : 2,40:1
Частота кадров : 23,976 кадра/сек
Цветовое пространство : YUV
Субдискретизация насыщенности : 4:2:0
Битовая глубина : 8 бит
Тип развёртки : Прогрессивная
Бит/(Пиксели*Кадры) : 0.309
Размер потока : 7,33 Гбайт (79%)
Библиотека кодирования : x264 core 59 r839M 27c3071
Настройки программы : cabac=1 / ref=5 / deblock=1:-3:-3 / analyse=0x3:0x113 / me=umh / subme=7 / me-prepass=0 / brdo=1 / mixed_ref=1 / me_range=16 / chroma_me=1 / trellis=0 / 8x8dct=1 / cqm=2 / deadzone=6,4 / chroma_qp_offset=0 / threads=6 / nr=0 / decimate=1 / mbaff=0 / fgo=10 / bframes=3 / b_pyramid=1 / b_adapt=1 / b_bias=0 / direct=1 / wpredb=1 / bime=1 / keyint=250 / keyint_min=25 / scenecut=40(pre) / rc=2pass / bitrate=11270 / ratetol=1.0 / rceq='blurCplx^(1-qComp)' / qcomp=1.00 / qpmin=10 / qpmax=51 / qpstep=4 / cplxblur=20.0 / qblur=0.5 / ip_ratio=1.40 / pb_ratio=1.15 / aq=2:1.00
Язык : English
Default : Да
Forced : Нет

Аудио #1
Идентификатор : 2
Формат : AC-3
Формат/Информация : Audio Coding 3
Расширение режима : CM (complete main)
Параметр Endianness формата : Big
Идентификатор кодека : A_AC3
Продолжительность : 1 ч. 35 м.
Вид битрейта : Постоянный
Битрейт : 384 Кбит/сек
Каналы : 6 каналов
Расположение каналов : Front: L C R, Side: L R, LFE
Частота : 48,0 КГц
Битовая глубина : 16 бит
Метод сжатия : С потерями
Размер потока : 263 Мбайт (3%)
Заголовок : DD 5.1 @ 384kbps (dubbed)
Язык : Russian
Default : Да
Forced : Нет

Аудио #2
Идентификатор : 3
Формат : AC-3
Формат/Информация : Audio Coding 3
Расширение режима : CM (complete main)
Параметр Endianness формата : Big
Идентификатор кодека : A_AC3
Продолжительность : 1 ч. 35 м.
Вид битрейта : Постоянный
Битрейт : 384 Кбит/сек
Каналы : 6 каналов
Расположение каналов : Front: L C R, Side: L R, LFE
Частота : 48,0 КГц
Битовая глубина : 16 бит
Метод сжатия : С потерями
Размер потока : 263 Мбайт (3%)
Заголовок : DD 5.1 @ 384kbps (voice over - Kinomania)
Язык : Russian
Default : Нет
Forced : Нет

Аудио #3
Идентификатор : 4
Формат : AC-3
Формат/Информация : Audio Coding 3
Расширение режима : CM (complete main)
Параметр Endianness формата : Big
Идентификатор кодека : A_AC3
Продолжительность : 1 ч. 35 м.
Вид битрейта : Постоянный
Битрейт : 640 Кбит/сек
Каналы : 6 каналов
Расположение каналов : Front: L C R, Side: L R, LFE
Частота : 48,0 КГц
Битовая глубина : 16 бит
Метод сжатия : С потерями
Размер потока : 438 Мбайт (5%)
Заголовок : DD 5.1 @ 640kbps (Goblin)
Язык : Russian
Default : Нет
Forced : Нет

Аудио #4
Идентификатор : 5
Формат : AC-3
Формат/Информация : Audio Coding 3
Расширение режима : CM (complete main)
Параметр Endianness формата : Big
Идентификатор кодека : A_AC3
Продолжительность : 1 ч. 35 м.
Вид битрейта : Постоянный
Битрейт : 640 Кбит/сек
Каналы : 6 каналов
Расположение каналов : Front: L C R, Side: L R, LFE
Частота : 48,0 КГц
Битовая глубина : 16 бит
Метод сжатия : С потерями
Размер потока : 438 Мбайт (5%)
Заголовок : DD 5.1 @ 640kbps (Mihalev)
Язык : Russian
Default : Нет
Forced : Нет

Аудио #5
Идентификатор : 6
Формат : AC-3
Формат/Информация : Audio Coding 3
Расширение режима : CM (complete main)
Параметр Endianness формата : Big
Идентификатор кодека : A_AC3
Продолжительность : 1 ч. 35 м.
Вид битрейта : Постоянный
Битрейт : 640 Кбит/сек
Каналы : 6 каналов
Расположение каналов : Front: L C R, Side: L R, LFE
Частота : 48,0 КГц
Битовая глубина : 16 бит
Метод сжатия : С потерями
Размер потока : 438 Мбайт (5%)
Заголовок : DD 5.1 @ 640kbps
Язык : English
Default : Нет
Forced : Нет

Текст #1
Идентификатор : 7
Формат : UTF-8
Идентификатор кодека : S_TEXT/UTF8
Идентификатор кодека/Информация : UTF-8 Plain Text
Язык : Russian
Default : Нет
Forced : Нет

Текст #2
Идентификатор : 8
Формат : UTF-8
Идентификатор кодека : S_TEXT/UTF8
Идентификатор кодека/Информация : UTF-8 Plain Text
Язык : English
Default : Нет
Forced : Нет

Текст #3
Идентификатор : 9
Формат : UTF-8
Идентификатор кодека : S_TEXT/UTF8
Идентификатор кодека/Информация : UTF-8 Plain Text
Язык : Czech
Default : Нет
Forced : Нет

Текст #4
Идентификатор : 10
Формат : UTF-8
Идентификатор кодека : S_TEXT/UTF8
Идентификатор кодека/Информация : UTF-8 Plain Text
Язык : Finnish
Default : Нет
Forced : Нет

Текст #5
Идентификатор : 11
Формат : UTF-8
Идентификатор кодека : S_TEXT/UTF8
Идентификатор кодека/Информация : UTF-8 Plain Text
Язык : French
Default : Нет
Forced : Нет

Текст #6
Идентификатор : 12
Формат : UTF-8
Идентификатор кодека : S_TEXT/UTF8
Идентификатор кодека/Информация : UTF-8 Plain Text
Язык : German
Default : Нет
Forced : Нет

Текст #7
Идентификатор : 13
Формат : UTF-8
Идентификатор кодека : S_TEXT/UTF8
Идентификатор кодека/Информация : UTF-8 Plain Text
Язык : Greek
Default : Нет
Forced : Нет

Текст #8
Идентификатор : 14
Формат : UTF-8
Идентификатор кодека : S_TEXT/UTF8
Идентификатор кодека/Информация : UTF-8 Plain Text
Язык : Hungarian
Default : Нет
Forced : Нет

Текст #9
Идентификатор : 15
Формат : UTF-8
Идентификатор кодека : S_TEXT/UTF8
Идентификатор кодека/Информация : UTF-8 Plain Text
Язык : Portuguese
Default : Нет
Forced : Нет

Текст #10
Идентификатор : 16
Формат : UTF-8
Идентификатор кодека : S_TEXT/UTF8
Идентификатор кодека/Информация : UTF-8 Plain Text
Язык : Spanish
Default : Нет
Forced : Нет
Свернуть
"Знаете ли Вы, что..."
  • В одной из сцен Макс ест собачьи консервы «Dinki-Di».
  • При выходе в прокат США фильм переименовали в «Дорожного воина», т. к. первая часть «Безумного Макса» (1979) прошла в ограниченном прокате, поэтому название «Безумный Макс 2» могло ввести зрителей в заблуждение.
  • На бензовозе можно заметить логотип «7 Sisters Oil», что является ссылкой на одну из популярных в своё время теорий заговора - «Standard Oil» и шесть других нефтяных компаний контролируют мировой рынок нефти».
  • Так как он был достаточно неизвестен на момент выхода фильма В США, в различных роликах картины практически не было Мэла Гибсона, а всё внимание уделялось автомобильным погоням и авариям.
  • Джордж Миллер (режиссер и один из сценаристов) получил права на данный фильм и «Безумного Макса 3: Под куполом грома» (1985), согласившись оставить режиссерское кресло на «Контакте» (1997).
  • Только две оригинальные модели «Перехватчика» были использованы в трилогии о Безумном Максе. Машина, использовавшаяся в первом фильм, была модифицирована для съёмок второго фильма (все планы внутри машины и внешние крупные планы автомобиля). После окончания съёмок второй части эта машина была куплена и восстановлена Бобом Форсенко. В настоящий момент она находится в «Cars of the Stars Motor Museum» в Англии. Второй автомобиль был использован только для сцен автомобильных погонь во втором фильме. Как и в фильме, автомобиль был разбит вдребезги. Автомобиль, который находится в «Planet Hollywood», является точной копией и никогда не был использован ни в одном из фильмов.
  • Машина Макса - «1973 Ford Falcon XB GT Coupe». Данная модель была сделана эксклюзивно для Австралии. Ограниченное количество автомобилей было экспортировано в Новую Зеландию и Великобританию. В США данный автомобиль не продавался. Всего было выпущено 949 автомобилей данной модели.
  • Кличка собаки - «Собака».
  • Самурайские фильмы Акиры Куросавы и книга Джозефа Кэмбелла «Герой с тысячью лиц» послужили вдохновением Терри Хэйесу, Джорджу Миллеру и Брайану Хэннату для написания сценария.
  • На момент выхода фильма, «Безумный Макс 2» стал самой дорогой австралийской картиной в истории.
  • На момент выхода фильма, декорация лагеря по добычи нефти стала самой большой съёмочной площадкой, когда-либо построенной в Австралии, а её разрушение - самым мощным взрывом в истории австралийского кино.
  • В фильме содержится цитата бывшего австралийского премьер-министра Гафа Уитлама (1972-1975): «Мы либо разобьемся, либо прорвемся».
Свернуть
Скриншоты

Изображение
Изображение
Изображение
Изображение
Изображение
Свернуть
Не в сети
Профиль  
Начать новую темуОтветить на тему  [ 1 сообщение ] 
Вы не можете начинать темы
Вы не можете отвечать на сообщения
Вы не можете редактировать свои сообщения
Вы не можете удалять свои сообщения