Правила форума

  • В этом разделе создание новых тем Запрещено.
  • Для создания новых тем пользуйтесь Корневым разделом DVD и HD фильмы.
Начать новую темуОтветить на тему  [ Сообщений: 14 ] 
Торрент файл
Размер: 7.96 GB • Зарегистрирован: 1 год 3 месяца • Статус: Проверено
Скачан: 985 раз • Желающих скачать: 0 • Поблагодарили: 191 раз
 Раздают: 3  |  0 KB/s  ]   Качают: 0  |  0 KB/s  ] 
Сообщения
 Добавлено: 2015-08-14 06:48
DVD Release Group
Аватара пользователя
Стаж: 7 лет 1 месяц
Сообщений: 3569
Спасибок: 247672
Лайков: 1020
Безумный Макс: Дорога ярости

Mad Max: Fury Road


Изображение


Год выпуска: 2015
Страна: Австралия, США
Жанр: Фантастика, боевик, триллер, приключения
Продолжительность: 02:00:23
Перевод: Профессиональный (полное дублирование)
Субтитры: Английские
Режиссер: Джордж Миллер
В ролях: Том Харди, Шарлиз Терон, Николас Холт, Хью Кияс-Бёрн, Джош Хелман, Нэйтан Джонс, Зои Кравиц, Роузи Хантингтон-Уайтли, Райли Кио, Эбби Ли
Описание: Вскоре после отмщения за смерть жены и сына, Макс Рокатански покинул ряды «Основного силового патруля» и уехал в глушь, где скитается в одиночестве, пока мир медленно падает впоследствии нефтяного кризиса и глобальной войны. Не имея ничего, кроме своей машины «Перехватчик», Максу предстоит научиться, как выжить в пост-апокалиптической пустоши и сражаться с жестокими, безжалостными воинами, которые населяют её.
Изображение Изображение
Sample:
http://sendfile.su/1145699
Качество: BDRip 1080p
Формат: MKV
Видео кодек: H.264
Аудио кодек: AC3
Видео: 1920x800 23.98fps 8456kbps
Аудио:
Аудио Rus: 48kHz 6ch 384kbps
Аудио Eng: 48kHz 6ch 640kbps
"MediaInfo"
Формат : Matroska
Версия формата : Version 4 / Version 2
Размер файла : 7,96 Гбайт
Продолжительность : 2 ч. 0 м.
Общий поток : 9468 Кбит/сек
Дата кодирования : UTC 2015-08-13 22:18:27
Программа кодирования : mkvmerge v6.9.1 ('Blue Panther') 64bit built on Apr 18 2014 18:23:38
Библиотека кодирования : libebml v1.3.0 + libmatroska v1.4.1

Видео
Идентификатор : 1
Формат : AVC
Формат/Информация : Advanced Video Codec
Профиль формата : High@L4.1
Параметр CABAC формата : Да
Параметр ReFrames формата : 5 кадров
Идентификатор кодека : V_MPEG4/ISO/AVC
Продолжительность : 2 ч. 0 м.
Битрейт : 8456 Кбит/сек
Ширина : 1920 пикселей
Высота : 800 пикселей
Соотношение сторон : 2,40:1
Режим частоты кадров : Постоянный
Частота кадров : 23,976 кадра/сек
Цветовое пространство : YUV
Субдискретизация насыщенности : 4:2:0
Битовая глубина : 8 бит
Тип развёртки : Прогрессивная
Бит/(Пиксели*Кадры) : 0.230
Размер потока : 6,94 Гбайт (87%)
Библиотека кодирования : x264 core 148 r2579 73ae2d1
Настройки программы : cabac=1 / ref=5 / deblock=1:0:0 / analyse=0x3:0x113 / me=umh / subme=8 / psy=1 / psy_rd=1.00:0.00 / mixed_ref=1 / me_range=16 / chroma_me=1 / trellis=1 / 8x8dct=1 / cqm=0 / deadzone=21,11 / fast_pskip=1 / chroma_qp_offset=-2 / threads=9 / lookahead_threads=1 / sliced_threads=0 / nr=0 / decimate=1 / interlaced=0 / bluray_compat=0 / constrained_intra=0 / bframes=3 / b_pyramid=2 / b_adapt=2 / b_bias=0 / direct=3 / weightb=1 / open_gop=0 / weightp=2 / keyint=250 / keyint_min=23 / scenecut=40 / intra_refresh=0 / rc_lookahead=50 / rc=2pass / mbtree=1 / bitrate=8456 / ratetol=1.0 / qcomp=0.60 / qpmin=0 / qpmax=69 / qpstep=4 / cplxblur=20.0 / qblur=0.5 / ip_ratio=1.40 / aq=1:1.00
Язык : English
Default : Да
Forced : Нет

Аудио #1
Идентификатор : 2
Формат : AC-3
Формат/Информация : Audio Coding 3
Расширение режима : CM (complete main)
Параметр Endianness формата : Big
Идентификатор кодека : A_AC3
Продолжительность : 2 ч. 0 м.
Вид битрейта : Постоянный
Битрейт : 384 Кбит/сек
Каналы : 6 каналов
Расположение каналов : Front: L C R, Side: L R, LFE
Частота : 48,0 КГц
Битовая глубина : 16 бит
Метод сжатия : С потерями
Размер потока : 331 Мбайт (4%)
Язык : Russian
Default : Да
Forced : Нет

Аудио #2
Идентификатор : 3
Формат : AC-3
Формат/Информация : Audio Coding 3
Расширение режима : CM (complete main)
Параметр Endianness формата : Big
Идентификатор кодека : A_AC3
Продолжительность : 2 ч. 0 м.
Вид битрейта : Постоянный
Битрейт : 640 Кбит/сек
Каналы : 6 каналов
Расположение каналов : Front: L C R, Side: L R, LFE
Частота : 48,0 КГц
Битовая глубина : 16 бит
Метод сжатия : С потерями
Размер потока : 551 Мбайт (7%)
Заголовок : English
Язык : English
Default : Нет
Forced : Нет

Текст #1
Идентификатор : 4
Формат : UTF-8
Идентификатор кодека : S_TEXT/UTF8
Идентификатор кодека/Информация : UTF-8 Plain Text
Заголовок : English
Язык : English
Default : Нет
Forced : Нет

Текст #2
Идентификатор : 5
Формат : UTF-8
Идентификатор кодека : S_TEXT/UTF8
Идентификатор кодека/Информация : UTF-8 Plain Text
Заголовок : English SDH
Язык : English
Default : Нет
Forced : Нет

Меню
00:00:00.000 : en:00:00:00.000
00:10:42.475 : en:00:10:42.475
00:19:06.437 : en:00:19:06.437
00:30:12.310 : en:00:30:12.310
00:42:55.615 : en:00:42:55.615
00:49:33.345 : en:00:49:33.345
00:59:55.175 : en:00:59:55.175
01:13:02.545 : en:01:13:02.545
01:22:08.924 : en:01:22:08.924
01:30:02.731 : en:01:30:02.731
01:40:39.867 : en:01:40:39.867
01:49:12.546 : en:01:49:12.546
01:53:06.279 : en:01:53:06.279
Свернуть

"Скриншоты"
Изображение
Изображение
Изображение
Свернуть
Не в сети
Профиль  
 Добавлено: 2015-08-14 10:41 (спустя 3 часа)
Аватара пользователя
Стаж: 7 лет 8 месяцев
Сообщений: 136
Лайков: 1
Звук Профессиональный (дубляж) [Лицензия BD EUR]???
Не в сети
Профиль  
 Добавлено: 2015-08-14 11:29 (спустя 47 минут)
Аватара пользователя
Стаж: 4 года 10 месяцев
Возраст: 29
Сообщений: 86
Лайков: 1
звук 2.0 что ли?
Не в сети
Профиль  
 Добавлено: 2015-08-14 11:58 (спустя 29 минут)
DVD Release Group
Аватара пользователя
Стаж: 7 лет 1 месяц
Сообщений: 3569
Спасибок: 247672
Лайков: 1020
BOMBA777
Перевод: Дублированный, звук с Itunes 6ch:
"Спектр"
Изображение
Свернуть
Не в сети
Профиль  
 Добавлено: 2015-08-14 20:16 (спустя 8 часов)
Аватара пользователя
Стаж: 4 года 10 месяцев
Возраст: 29
Сообщений: 86
Лайков: 1
фильм бомба
 electron2011 нравится это.
Не в сети
Профиль  
 Добавлено: 2015-08-14 23:50 (спустя 3 часа)
Аватара пользователя
Стаж: 8 лет 1 месяц
Сообщений: 346
Спасибок: 85
Лайков: 7
Неплохой фильм-погоня, но сюжета особого нет. Не очень мне понятны восторги и фонтаны слюней по поводу этого фильма, пройдёт лет 5-7, эффекты устареют, и мало кто вспомнит об этом фильме, как и о большинстве фильмов завязанных на спец. эффектах.
_________________
Будь проще, и жить будет легче!
 vitalll нравится это.
Не в сети
Профиль  
 Добавлено: 2015-08-15 11:40 (спустя 11 часов)
Кинокомментатор
Аватара пользователя
Стаж: 9 лет 1 месяц
Сообщений: 1332
Лайков: 54
тут игра актёров! сила человека) эээх... ничего вы не понимаете))
9/10
Не в сети
Профиль  
 Добавлено: 2015-08-16 01:14 (спустя 13 часов)
Стаж: 9 лет
Сообщений: 312
Спасибок: 347
Лайков: 9
Шняга такая, если честно...
Не в сети
Профиль  
 Добавлено: 2015-08-17 03:29 (спустя 1 день 2 часа)
Console V.I.P.
Аватара пользователя
Стаж: 9 лет
Сообщений: 1457
Спасибок: 690
Лайков: 12
Ерунда полнейшая по сравнению с первым фильмом. Первый имеет свой стиль, реализм, великолепную актерскую игру, сложнейшие трюки и все это в микробюджете (там режиссер из собственного кармана многое оплачивал), а этот "Fury Road" похож на немые фильмы Чарли Чаплина с хорошо поставленными погонями, хорошей работой пиротехников и скудными спецэффектами, поскольку все на фоне пустыни. Погони и пиротехника были и в первой части, только в чуть меньших масштабах, однако выглядит первый фильм 70-х годов даже лучше, поскольку все в живую, без мыльных мультиков!
Кто в теме тот поймет, а кому и мультик сойдет - посмотреть можно, но без души, фильм пустой, без базиса и идеи, не живой.
И я чего-то не понял про девочку, которая Максу мерещится, в первом фильме у Макса был сын и он был младенцем, а тут какая-то девчонка лет 7. Что это за хренота, создатели "Fury Road" не смотрели оригинал Mad Max?
_________________
МАСТЕР ПО ИГРОВЫМ КОНСОЛЯМ
ПРОДАЖА И МОДЕРНИЗАЦИЯ ИГРОВЫХ КОНСОЛЕЙ

УСЛУГИ И КОНТАКТЫ (нажать чтобы посмотреть)
icq: 378004868 тел: 89049149337
Не в сети
Профиль  
 Добавлено: 2015-08-19 14:46 (спустя 2 дня 11 часов)
Аватара пользователя
Стаж: 7 лет 7 месяцев
Сообщений: 286
Лайков: 29

VORTEX_1992:

Неплохой фильм-погоня, но сюжета особого нет. Не очень мне понятны восторги и фонтаны слюней по поводу этого фильма, пройдёт лет 5-7, эффекты устареют, и мало кто вспомнит об этом фильме, как и о большинстве фильмов завязанных на спец. эффектах.
Как могут спецэффекты устареть, если это не графика? лол
Не в сети
Профиль  
 Добавлено: 2015-08-19 15:14 (спустя 28 минут)
Аватара пользователя
Стаж: 4 года 10 месяцев
Возраст: 29
Сообщений: 86
Лайков: 1
трешак и сабик норм дома отрабатывал
Не в сети
Профиль  
 Добавлено: 2015-08-19 18:31 (спустя 3 часа)
Аватара пользователя
Стаж: 8 лет 1 месяц
Сообщений: 346
Спасибок: 85
Лайков: 7

cayp123:

VORTEX_1992:

Неплохой фильм-погоня, но сюжета особого нет. Не очень мне понятны восторги и фонтаны слюней по поводу этого фильма, пройдёт лет 5-7, эффекты устареют, и мало кто вспомнит об этом фильме, как и о большинстве фильмов завязанных на спец. эффектах.
Как могут спецэффекты устареть, если это не графика? лол

Посмотри, например, фильм "Ронин" с Робертом Дениро и убедись, что может. Там тоже в своё время крутые погони и трюки с автомобилями были. Сейчас откровенно скучно на это смотреть.
_________________
Будь проще, и жить будет легче!
Не в сети
Профиль  
 Добавлено: 2015-09-04 16:35 (спустя 15 дней)
Стаж: 7 лет 8 месяцев
Сообщений: 9
полное Г
Не в сети
Профиль  
 Добавлено: 2016-08-09 20:49 (спустя 11 месяцев)
Стаж: 8 лет 3 месяца
Сообщений: 372
Лайков: 2
1 и 2й безумный макс - скучнейшая шляпа, а этот фильм один из лучших в таком стиле.
Не в сети
Профиль  
Начать новую темуОтветить на тему  [ Сообщений: 14 ] 
Вы не можете начинать темы
Вы не можете отвечать на сообщения
Вы не можете редактировать свои сообщения
Вы не можете удалять свои сообщения