Правила форума

  • В этом разделе создание новых тем Запрещено.
  • Для создания новых тем пользуйтесь Корневым разделом DVD и HD фильмы.
Начать новую темуОтветить на тему  [ Сообщений: 3 ] 
Торрент файл
Размер: 9.28 GB • Зарегистрирован: 4 года 2 месяца • Статус: Проверено
Скачан: 17 раз • Желающих скачать: 0 • Поблагодарили: 14 раз
 Раздают: 0  |  0 KB/s  ]   Качают: 0  |  0 KB/s  ] 
 Полного источника не было 3 года 2 месяца 
Сообщения
 Добавлено: 2012-10-05 17:28
Top-releaser
Аватара пользователя
Стаж: 6 лет 7 месяцев
Сообщений: 2078
Спасибок: 3230
Лайков: 9
Изображение

Безумный Макс
Mad Max


Год выпуска: 1979
Страна: Австралия
Слоган: «The Film That Started It All»
Жанр: боевик, триллер, приключения
Продолжительность: 01:33:11
Перевод: Профессиональный (полное дублирование)
Режиссер: Джордж Миллер
Сценарий: Джордж Миллер, Джеймс МакКосленд, Байрон Кеннеди
Продюсер: Байрон Кеннеди, Билл Миллер
Оператор: Дэвид Эггби
Композитор: Брайан Мэй
В ролях: Мэл Гибсон, Джоэнн Сэмюэл, Хью Кияс-Бёрн, Стив Бисли, Тим Барнс, Роджер Уорд, Лиза Альденховен, Дэвид Брэкс, Бертран Кадар, Дэвид Камерон, Робина Чеффи, Стивен Кларк
Бюджет: $350 000
Сборы в США: $8 750 000
Мировая премьера: 12 апреля 1979
Релиз на DVD: 7 апреля 2011, «ВС трейд»
Описание: В недалёком будущем, после крупной катастрофы, поразившей нашу урбанистическую цивилизацию, вся жизнь сосредоточилась вдоль бесчисленных магистралей.
Дорога стала способом существования. И дала многим возможность проявлять свои самые жестокие инстинкты. Банда байкеров на мощных мотоциклах, желая рассчитаться за своего убитого товарища, преследует молодого полицейского Макса. В яростной схватке убит другой полицейский, Гус, подобная участь может ждать Макса и его семью.
Ему предстоит самая главная и сложная задача - сохранить жену, сына и выжить самому. В роли Макса - Мел Гибсон, тогда ещё мало известный широкой публике.


Изображение User Rating: 7.177 (8 010)
Изображение User Rating: 7.00 (67 554)
MPAA: R - Лицам до 17 лет обязательно присутствие взрослого
Качество: BDRip, 1080p
Формат: Matroska
Видео: AVC; 1920x824 (2.35:1); 8570 Kbps; 23,976 fps; 0,226 bit/pixel
Аудио №1: Russian; AC3; 448 Kbps; CBR; 6 ch - Профессиональный дублированный
Аудио №2: Russian; AC3; 448 Kbps; CBR; 6 ch - Профессиональный многоголосый
Аудио №3: Russian; DTS; 1509 Kbps; CBR; 6 ch; 24 bit - Авторский одноголосый, Алексей Михалёв
Аудио №4: Russian; AC3; 448 Kbps; CBR; 6 ch - Авторский одноголосый, Леонид Володарский
Аудио №5: English; DTS-HD; VBR; 6 ch; 24 bit


MediaInfo
Общее
Уникальный идентификатор : 174378973806884357958353038379419977626 (0x83302B320F9AF8B19BF379109EC0479A)
Полное имя : Z:\WWW\TR-Downloads\Mad_Max.1080p[R.G.Daredevil].mkv
Формат : Matroska
Версия формата : Version 2
Размер файла : 9,28 Гбайт
Продолжительность : 1 ч. 33 м.
Режим общего битрейта : Переменный
Общий поток : 14,3 Мбит/сек
Название фильма : Bezumniy.Maks.1979.x264.BDRip.1080p.Troyanec27
Дата кодирования : UTC 2010-11-21 19:35:42
Программа кодирования : mkvmerge v4.4.0 ('Die Wiederkehr') сборка от Oct 31 2010 21:52:48
Библиотека кодирования : libebml v1.0.0 + libmatroska v1.0.0

Видео
Идентификатор : 1
Формат : AVC
Формат/Информация : Advanced Video Codec
Профиль формата : High@L4.1
Параметр CABAC формата : Да
Параметр ReFrames формата : 5 кадров
Идентификатор кодека : V_MPEG4/ISO/AVC
Продолжительность : 1 ч. 33 м.
Битрейт : 9564 Кбит/сек
Номинальный битрейт : 8570 Кбит/сек
Ширина : 1920 пикселей
Высота : 824 пикселя
Соотношение сторон : 2,35:1
Частота кадров : 23,976 кадра/сек
Цветовое пространство : YUV
Субдискретизация насыщенности : 4:2:0
Битовая глубина : 8 бит
Тип развёртки : Прогрессивная
Бит/(Пиксели*Кадры) : 0.252
Размер потока : 6,23 Гбайт (67%)
Библиотека кодирования : x264 core 105 r1732 2b04482
Настройки программы : cabac=1 / ref=5 / deblock=1:0:0 / analyse=0x3:0x133 / me=umh / subme=7 / psy=1 / psy_rd=1.00:0.00 / mixed_ref=1 / me_range=16 / chroma_me=1 / trellis=1 / 8x8dct=1 / cqm=0 / deadzone=21,11 / fast_pskip=0 / chroma_qp_offset=-2 / threads=6 / sliced_threads=0 / nr=0 / decimate=1 / interlaced=0 / constrained_intra=0 / bframes=3 / b_pyramid=2 / b_adapt=1 / b_bias=0 / direct=1 / weightb=1 / open_gop=0 / weightp=2 / keyint=250 / keyint_min=23 / scenecut=40 / intra_refresh=0 / rc_lookahead=40 / rc=2pass / mbtree=1 / bitrate=8570 / ratetol=1.0 / qcomp=0.60 / qpmin=10 / qpmax=51 / qpstep=4 / cplxblur=20.0 / qblur=0.5 / ip_ratio=1.40 / aq=1:1.00
Язык : English
Default : Да
Forced : Нет

Аудио #1
Идентификатор : 2
Формат : AC-3
Формат/Информация : Audio Coding 3
Расширение режима : CM (complete main)
Параметр Endianness формата : Big
Идентификатор кодека : A_AC3
Продолжительность : 1 ч. 33 м.
Вид битрейта : Постоянный
Битрейт : 448 Кбит/сек
Каналы : 6 каналов
Расположение каналов : Front: L C R, Side: L R, LFE
Частота : 48,0 КГц
Битовая глубина : 16 бит
Метод сжатия : С потерями
Размер потока : 299 Мбайт (3%)
Заголовок : dub
Язык : Russian
Default : Да
Forced : Нет

Аудио #2
Идентификатор : 3
Формат : AC-3
Формат/Информация : Audio Coding 3
Расширение режима : CM (complete main)
Параметр Endianness формата : Big
Идентификатор кодека : A_AC3
Продолжительность : 1 ч. 33 м.
Вид битрейта : Постоянный
Битрейт : 448 Кбит/сек
Каналы : 6 каналов
Расположение каналов : Front: L C R, Side: L R, LFE
Частота : 48,0 КГц
Битовая глубина : 16 бит
Метод сжатия : С потерями
Размер потока : 299 Мбайт (3%)
Заголовок : Kinomania
Язык : Russian
Default : Нет
Forced : Нет

Аудио #3
Идентификатор : 4
Формат : DTS
Формат/Информация : Digital Theater Systems
Идентификатор кодека : A_DTS
Продолжительность : 1 ч. 33 м.
Вид битрейта : Постоянный
Битрейт : 1510 Кбит/сек
Каналы : 6 каналов
Расположение каналов : Front: L C R, Side: L R, LFE
Частота : 48,0 КГц
Битовая глубина : 24 бит
Метод сжатия : С потерями
Размер потока : 1006 Мбайт (11%)
Заголовок : Mikhalev
Язык : Russian
Default : Нет
Forced : Нет

Аудио #4
Идентификатор : 5
Формат : AC-3
Формат/Информация : Audio Coding 3
Расширение режима : CM (complete main)
Параметр Endianness формата : Big
Идентификатор кодека : A_AC3
Продолжительность : 1 ч. 33 м.
Вид битрейта : Постоянный
Битрейт : 448 Кбит/сек
Каналы : 6 каналов
Расположение каналов : Front: L C R, Side: L R, LFE
Частота : 48,0 КГц
Битовая глубина : 16 бит
Метод сжатия : С потерями
Размер потока : 299 Мбайт (3%)
Заголовок : Volodarsky
Язык : Russian
Default : Нет
Forced : Нет

Аудио #5
Идентификатор : 6
Формат : DTS
Формат/Информация : Digital Theater Systems
Профиль формата : MA / Core
Идентификатор кодека : A_DTS
Продолжительность : 1 ч. 33 м.
Вид битрейта : Переменный
Битрейт : 1561 Кбит/сек / 1510 Кбит/сек
Каналы : 6 каналов
Расположение каналов : Front: L C R, Side: L R, LFE
Частота : 48,0 КГц
Битовая глубина : 24 бит
Метод сжатия : Без потерь / Lossy
Заголовок : original_eng
Язык : English
Default : Нет
Forced : Нет

Текст #1
Идентификатор : 7
Формат : PGS
Режим смешивания : zlib
Идентификатор кодека : S_HDMV/PGS
Идентификатор кодека/Информация : The same subtitle format used on BDs/HD-DVDs
Default : Да
Forced : Нет

Текст #2
Идентификатор : 8
Формат : PGS
Режим смешивания : zlib
Идентификатор кодека : S_HDMV/PGS
Идентификатор кодека/Информация : The same subtitle format used on BDs/HD-DVDs
Default : Нет
Forced : Нет
Свернуть
"Знаете ли Вы, что..."
  • Мэл Гибсон специально не проходил пробы для фильма. Он пошел на пробы за компанию со своим другом. Так как в предыдущую ночь он подрался в баре, его лицо было в синяках и невероятно распухло. Мэлу сказали, что он может вернуться через три недели для проб на роли всевозможных фриков, присутствующих в фильме. Он пришел через три недели, его никто не узнал, но зато ему предложили пройти пробы на главную роль в фильме.
  • Машина Макса - «Ford XB Falcon Coupe». Данная модель продавалась в Австралии с декабря 1973 по август 1976.
  • Только две оригинальные модели «Перехватчика» были использованы в трилогии о Безумном Максе. Машина, использовавшаяся в первом фильм, была модифицирована для съёмок второго фильма (все планы внутри машины и внешние крупные планы автомобиля). После окончания съёмок второй части эта машина была куплена и восстановлена Бобом Форсенко. В настоящий момент она находится в «Cars of the Stars Motor Museum» в Англии. Второй автомобиль был использован только для сцен автомобильных погонь во втором фильме. Как и в фильме, автомобиль был разбит вдребезги. Автомобиль, который находится в «Planet Hollywood», является точной копией и никогда не был использован ни в одном из фильмов.
  • Машина Ночного Ездока в начале фильма - «HQ Holden Monaro», продававшаяся в Австралии в начале 1970-х в различных комплектациях. Полицейские машины в фильме - седан-версии «XB».
  • Желтая машина Макса - «Ford Falcon XB sedan».
  • Мотоцикл Гуса - «1977 Kawasaki KZ 1000».
  • Несколько машин, использованные в качестве полицейских автомобилей, были перекрашены для съёмок в других сценах.
  • Несколько фраз, которые Ночной Ездок говорит по радио, повторяют текст песни «Rocker» группы «AC/DC».
  • Микроавтобус, который разбивают в начале фильма, принадлежал Джорджу Миллеру.
  • Примерно 20% запланированных автомобильных погонь так и не были сняты из-за отсутствия денежных средств.
  • Личный полицейский номер Макса - 4073, Джима Гуса - 2241, Чарли - 3840 или 3842.
  • Так как он был достаточно неизвестен на момент выхода фильма, в различных роликах картины практически не было Мэла Гибсона, а всё внимание уделялось автомобильным погоням и авариям.
  • Из-за ограниченного бюджета, в фильме были использованы списанные полицейские машины. Только Мэл Гибсон носил одежду из настоящей кожи. Все остальные полицейские носили одежду из винилопласта.
  • «Безумный Макс» стал первым австралийским фильмом, снятым в широкоформатном аноморфном формате.
Свернуть
Скриншоты

Изображение
Изображение
Изображение
Изображение
Изображение
Свернуть
Не в сети
Профиль  
 Добавлено: 2012-10-17 18:21 (спустя 12 дней)
Стаж: 4 года 3 месяца
Сообщений: 8
А третью часть в таком качестве можешь выложить?
Не в сети
Профиль  
 Добавлено: 2012-10-17 18:43 (спустя 21 минута)
Top-releaser
Аватара пользователя
Стаж: 6 лет 7 месяцев
Сообщений: 2078
Спасибок: 3230
Лайков: 9
RandomApok
1080p нету((
Но есть HDTVRip 720p viewtopic.php?f=1750&t=196480
Не в сети
Профиль  
Начать новую темуОтветить на тему  [ Сообщений: 3 ] 
Вы не можете начинать темы
Вы не можете отвечать на сообщения
Вы не можете редактировать свои сообщения
Вы не можете удалять свои сообщения