Правила форума

  • В этом разделе создание новых тем Запрещено.
  • Для создания новых тем пользуйтесь Корневым разделом DVD и HD фильмы.
Начать новую темуОтветить на тему  [ Сообщений: 2 ] 
Торрент файл
Размер: 4.54 GB • Зарегистрирован: 3 года 10 месяцев • Статус: Проверено
Скачан: 15 раз • Желающих скачать: 0 • Поблагодарили: 4 раза
 Раздают: 0  |  0 KB/s  ]   Качают: 0  |  0 KB/s  ] 
 Полного источника не было 2 года 6 месяцев 
Сообщения
 Добавлено: 2013-01-21 14:39
Модератор
Аватара пользователя
Стаж: 6 лет 10 месяцев
Возраст: 33
Сообщений: 5908
Спасибок: 61258
Лайков: 3540
Изображение

Бычара
Rundskop


Год выпуска: 2011
Страна: Бельгия
Жанр: драма, криминал
Продолжительность: 02:08:03
Перевод: Профессиональный (многоголосый, закадровый) [НТВ+]
Режиссер: Михаэль Р. Роскам
Сценарий: Михаэль Р. Роскам
Продюсер: Барт Ван Лангендонк, Карлос Бедран, Ян ван дер Занден, Сильви Ван Рюймбеке, Саския Вербовен
Оператор: Николас Каракатсанис
Композитор: Раф Кюнен
В ролях: Маттиас Шонартс, Джероен Персеваль, Жанна Дандуа, Барбара Сарафьян, Тибо Ванденборре, Фрэнк Ламмерс, Сэм Ловик, Робин Вальвекенс, Баудоин Вольверц, Давид Муржиа, Эрико Саламоне, Филипп Гран’Анри
Сборы в США: $151 840
Мировая премьера: 2 февраля 2011
Описание: К молодому скотоводу Джекки Вэнмарсениллу приезжает недобросовестный ветеринар, чтобы заключить теневую сделку с печально известным западно-фламандским торговцем говядины. Но убийство федерального полицейского, и неожиданное столкновение с тайной из прошлого Джекки, приводят в движение цепь событий с далеко идущими последствиями. Захватывающая трагедия о судьбе, потерянной невиновности и дружбе, о преступлении и наказании, но также и о противоречивых желаниях и необратимости судьбы человека.

Изображение User Rating: 6.593 (429)
Изображение User Rating: 7.30 (8 550)
MPAA: R - Лицам до 17 лет обязательно присутствие взрослого
Раздача группы: Изображение
Изображение
Качество: BDRip (720р)
Формат: MKV
Видео: MPEG-4 AVC, 4809 Кбит/с, 1280x544
Аудио: Русский (AC3, 2 ch, 192 Кбит/с), французский (DTS, 6 ch, 1510 Кбит/с)
mediainfo
General
Unique ID : 221889550898521033814580510080935401327 (0xA6EE5F7FB1BAD74F87C839A9B648176F)
Format : Matroska
Format version : Version 2
File size : 5.62 GiB
Duration : 2h 3mn
Overall bit rate : 6 506 Kbps
Encoded date : UTC 2013-01-21 07:11:22
Writing application : mkvmerge v5.2.0 ('I can't explain') built on Dec 18 2011 18:12:03
Writing library : libebml v1.2.3 + libmatroska v1.3.0

Video
ID : 1
Format : AVC
Format/Info : Advanced Video Codec
Format profile : High@L4.1
Format settings, CABAC : Yes
Format settings, ReFrames : 5 frames
Muxing mode : Header stripping
Codec ID : V_MPEG4/ISO/AVC
Duration : 2h 3mn
Bit rate : 4 809 Kbps
Width : 1 280 pixels
Height : 544 pixels
Display aspect ratio : 2.35:1
Frame rate : 25.000 fps
Color space : YUV
Chroma subsampling : 4:2:0
Bit depth : 8 bits
Scan type : Progressive
Bits/(Pixel*Frame) : 0.276
Stream size : 4.04 GiB (72%)
Writing library : x264 core 125 r2208 d9d2288
Encoding settings : cabac=1 / ref=5 / deblock=1:0:0 / analyse=0x3:0x113 / me=umh / subme=7 / psy=1 / psy_rd=1.00:0.00 / mixed_ref=1 / me_range=16 / chroma_me=1 / trellis=1 / 8x8dct=1 / cqm=0 / deadzone=21,11 / fast_pskip=0 / chroma_qp_offset=-2 / threads=18 / lookahead_threads=3 / sliced_threads=0 / nr=0 / decimate=1 / interlaced=0 / bluray_compat=0 / constrained_intra=0 / bframes=3 / b_pyramid=2 / b_adapt=1 / b_bias=0 / direct=1 / weightb=1 / open_gop=0 / weightp=2 / keyint=250 / keyint_min=25 / scenecut=40 / intra_refresh=0 / rc_lookahead=40 / rc=2pass / mbtree=1 / bitrate=4809 / ratetol=1.0 / qcomp=0.60 / qpmin=0 / qpmax=69 / qpstep=4 / cplxblur=20.0 / qblur=0.5 / ip_ratio=1.40 / aq=1:1.00
Language : English
Default : Yes
Forced : No

Audio #1
ID : 2
Format : AC-3
Format/Info : Audio Coding 3
Mode extension : CM (complete main)
Muxing mode : Header stripping
Codec ID : A_AC3
Duration : 2h 3mn
Bit rate mode : Constant
Bit rate : 192 Kbps
Channel(s) : 2 channels
Channel positions : Front: L R
Sampling rate : 48.0 KHz
Bit depth : 16 bits
Compression mode : Lossy
Stream size : 170 MiB (3%)
Language : Russian
Default : Yes
Forced : Yes

Audio #2
ID : 3
Format : DTS
Format/Info : Digital Theater Systems
Muxing mode : Header stripping
Codec ID : A_DTS
Duration : 2h 3mn
Bit rate mode : Constant
Bit rate : 1 510 Kbps
Channel(s) : 6 channels
Channel positions : Front: L C R, Side: L R, LFE
Sampling rate : 48.0 KHz
Bit depth : 24 bits
Compression mode : Lossy
Stream size : 1.30 GiB (23%)
Title : DTS 5.1
Language : French
Default : No
Forced : No

Text #1
ID : 4
Format : UTF-8
Codec ID : S_TEXT/UTF8
Codec ID/Info : UTF-8 Plain Text
Language : Russian
Default : No
Forced : No

Text #2
ID : 5
Format : UTF-8
Codec ID : S_TEXT/UTF8
Codec ID/Info : UTF-8 Plain Text
Language : English
Default : No
Forced : No

Text #3
ID : 6
Format : UTF-8
Codec ID : S_TEXT/UTF8
Codec ID/Info : UTF-8 Plain Text
Title : Forced
Language : French
Default : No
Forced : No

Menu
00:00:00.000 : en:00:00:00.000
00:11:35.400 : en:00:11:35.400
00:26:13.480 : en:00:26:13.480
00:38:12.200 : en:00:38:12.200
00:49:43.000 : en:00:49:43.000
01:00:11.920 : en:01:00:11.920
01:11:04.160 : en:01:11:04.160
01:24:14.120 : en:01:24:14.120
01:36:39.280 : en:01:36:39.280
01:45:55.200 : en:01:45:55.200
Свернуть
Скриншоты

Изображение
Изображение
Изображение
Изображение
Свернуть
_________________
ИзображениеИзображение Изображение
Изображение
 tany1984 и di-ys1 нравится это.
Не в сети
Профиль  
 Добавлено: 2013-01-22 17:58 (спустя 1 день 3 часа)
Аватара пользователя
Стаж: 7 лет 9 месяцев
Сообщений: 19
А как Путина заставили сниматься? (на последнем скрине)
Не в сети
Профиль  
Начать новую темуОтветить на тему  [ Сообщений: 2 ] 
Вы не можете начинать темы
Вы не можете отвечать на сообщения
Вы не можете редактировать свои сообщения
Вы не можете удалять свои сообщения