Правила форума

  • В этом разделе создание новых тем Запрещено.
  • Для создания новых тем пользуйтесь Корневым разделом DVD и HD фильмы.
Начать новую темуОтветить на тему  [ 1 сообщение ] 
Торрент файл
Размер: 11.69 GB • Зарегистрирован: 5 лет 8 месяцев • Статус: Проверено
Скачан: 238 раз • Желающих скачать: 0 • Поблагодарили: 28 раз
 Раздают: 0  |  0 KB/s  ]   Качают: 0  |  0 KB/s  ] 
 Полного источника не было 3 года 2 месяца 
Сообщения
 Добавлено: 2011-03-23 23:48
Аватара пользователя
Стаж: 8 лет
Возраст: 23
Сообщений: 2472
Спасибок: 27961
Лайков: 2
Быстрее пули / Faster


«Правосудие не для всех»



Изображение
Год выпуска: 2010
Страна: Изображение США
Жанр: боевик, триллер, драма, криминал
Продолжительность:
01:37:57

Перевод: Профессиональный (полное дублирование) [лицензия]

Режиссер: Джордж Тиллман мл.
Сценарий: Тони Гэйтон, Джо Гэйтон
Продюсер: Тони Гэйтон, Лиз Глоцер, Мартин Шэфер, Роберт Тейтел, Джо Гэйтон
Оператор: Майкл Грэйди
Композитор: Клинт Мэнселл

В ролях:
Дуэйн Джонсон (Driver), Билли Боб Торнтон (Cop), Оливер Джексон-Коэн (Killer), Карла Гуджино (Cicero), Мэгги Грэйс (Lily), Мун Бладгуд (Marina), Адевале Акиннуойе-Агбадже (The Evangelist), Том Беренджер (Warden), Маурицио Лопез (Prison Guard), Джим Гейнс (Inmate), Жан Хоаг (Receptionist), Кортни Гейнс (Telemarketer)
Дублёры: Инна Королёва (Woman) (Woman)

Описание: Бывший преступник мстит за убийство родного брата во время ограбления десять лет назад, когда кто-то подставил нечистых на руку родственников.


Изображение: 6.351 (2 259)
Изображение: 6.60 (13 315)

MPAA: Изображение - Лицам до 17 лет обязательно присутствие взрослого
Доп. Информация

Бюджет: $24 000 000
Сборы в США: $23 240 020
Сборы в мире: $29 025 078
Мировая премьера: 4 ноября 2010
Изображение Релиз на DVD: 14 апреля 2011, «Columbia/Sony»
Изображение Релиз на Blu-ray: 7 мая 2011, «Columbia/Sony»

Свернуть

Релиз группы: Изображение

Качество: BDRip 1080p R5

Формат: MKV
Видео: AVC; 1920x800 (2.40:1); 16.0 mb/s; 23,976 fps; 0,420 bpp
Аудио: Russian: AC3, 448 kb/s (6 ch) / English: AC3, 640 kb/s (6 ch)
Субтитры: Russian [forced], English
Размер: 11.69 GB
Дополнительно: Сохранены оригинальные чаптеры как на Blu-ray
Изображение


BDInfo

Полное имя : Faster.2010.D.BDRip.1080p.mkv
Формат : Matroska
Размер файла : 11,7 Гбайт
Продолжительность : 1 ч. 37 м.
Общий поток : 17,1 Мбит/сек
Название фильма : Быстрее пули / Faster (2010)
Дата кодирования : UTC 2011-03-23 18:36:20
Программа кодирования : mkvmerge v4.6.0 ('Still Crazy After All These Years') сборка от Mar 10 2011 02:50:32
Библиотека кодирования : libebml v1.2.0 + libmatroska v1.1.0

Видео
Идентификатор : 1
Формат : AVC
Формат/Информация : Advanced Video Codec
Профиль формата : High@L4.1
Параметр CABAC формата : Да
Параметр ReFrames формата : 5 кадры
Идентификатор кодека : V_MPEG4/ISO/AVC
Продолжительность : 1 ч. 37 м.
Битрейт : 16,0 Мбит/сек
Ширина : 1920 пикс.
Высота : 800 пикс.
Соотношение сторон : 2,40:1
Частота кадров : 23,976 кадр/сек
Цветовое пространство : YUV
Подвыборка цветности : 4:2:0
Битовая глубина : 8 бит
Тип развёртки : Прогрессивная
Бит/(Пиксели*Кадры) : 0.434
Размер потока : 10,7 Гбайт (92%)
Заголовок : Faster.2010.D.BDRip.1080p.EbP
Библиотека кодирования : x264 core 114 r1900 60ef1f8
Настройки программы : cabac=1 / ref=5 / deblock=1:-3:-3 / analyse=0x3:0x113 / me=tesa / subme=10 / psy=1 / psy_rd=1.10:0.00 / mixed_ref=1 / me_range=16 / chroma_me=1 / trellis=2 / 8x8dct=1 / cqm=0 / deadzone=21,11 / fast_pskip=0 / chroma_qp_offset=-2 / threads=12 / sliced_threads=0 / nr=0 / decimate=0 / interlaced=0 / constrained_intra=0 / bframes=8 / b_pyramid=2 / b_adapt=2 / b_bias=0 / direct=3 / weightb=1 / open_gop=0 / weightp=2 / keyint=250 / keyint_min=23 / scenecut=40 / intra_refresh=0 / rc=2pass / mbtree=0 / bitrate=16000 / ratetol=1.0 / qcomp=0.80 / qpmin=0 / qpmax=69 / qpstep=4 / cplxblur=20.0 / qblur=0.5 / ip_ratio=1.40 / pb_ratio=1.30 / aq=1:0.80
Язык : English

Аудио #1
Идентификатор : 2
Формат : AC-3
Формат/Информация : Audio Coding 3
Расширение режима : CM (complete main)
Идентификатор кодека : A_AC3
Продолжительность : 1 ч. 37 м.
Вид битрейта : Постоянный
Битрейт : 448 Кбит/сек
Канал(ы) : 6 канала(ов)
Расположение каналов : Front: L C R, Side: L R, LFE
Частота : 48,0 КГц
Битовая глубина : 16 бит
Метод сжатия : С потерями
Задержка видео : 24 мс.
Размер потока : 314 Мбайт (3%)
Заголовок : AC3 5.1 @ 448 kb/s [Russian DUB R5]
Язык : Russian

Аудио #2
Идентификатор : 3
Формат : AC-3
Формат/Информация : Audio Coding 3
Расширение режима : CM (complete main)
Идентификатор кодека : A_AC3
Продолжительность : 1 ч. 37 м.
Вид битрейта : Постоянный
Битрейт : 640 Кбит/сек
Канал(ы) : 6 канала(ов)
Расположение каналов : Front: L C R, Side: L R, LFE
Частота : 48,0 КГц
Битовая глубина : 16 бит
Метод сжатия : С потерями
Размер потока : 449 Мбайт (4%)
Заголовок : AC3 5.1 @ 640 kb/s [English]
Язык : English

Текст #1
Идентификатор : 4
Формат : UTF-8
Идентификатор кодека : S_TEXT/UTF8
Идентификатор кодека/Информация : UTF-8 Plain Text
Заголовок : Russian [forced]
Язык : Russian

Текст #2
Идентификатор : 5
Формат : UTF-8
Идентификатор кодека : S_TEXT/UTF8
Идентификатор кодека/Информация : UTF-8 Plain Text
Заголовок : English SUB [SDH]
Язык : English

Меню
00:00:00.000 : en:00:00:00.000
00:07:51.012 : en:00:07:51.012
00:11:59.844 : en:00:11:59.844
00:20:57.089 : en:00:20:57.089
00:24:29.343 : en:00:24:29.343
00:30:38.837 : en:00:30:38.837
00:35:46.770 : en:00:35:46.770
00:43:30.566 : en:00:43:30.566
00:47:07.533 : en:00:47:07.533
00:54:53.040 : en:00:54:53.040
00:59:17.179 : en:00:59:17.179
01:07:08.566 : en:01:07:08.566
01:11:28.242 : en:01:11:28.242
01:17:09.083 : en:01:17:09.083
01:23:05.564 : en:01:23:05.564
01:28:45.362 : en:01:28:45.362
Свернуть
Скриншоты

Изображение
Изображение
Изображение
Изображение
Изображение
Изображение
Свернуть

_________________
Изображение

Изображение
Не в сети
Профиль  
Начать новую темуОтветить на тему  [ 1 сообщение ] 
Вы не можете начинать темы
Вы не можете отвечать на сообщения
Вы не можете редактировать свои сообщения
Вы не можете удалять свои сообщения