Правила форума

  • В этом разделе создание новых тем Запрещено.
  • Для создания новых тем пользуйтесь Корневым разделом DVD и HD фильмы.
Начать новую темуОтветить на тему  [ 1 сообщение ] 
Торрент файл
Размер: 8.25 GB • Зарегистрирован: 5 лет 9 месяцев • Статус: Проверено
Скачан: 125 раз • Желающих скачать: 0 • Поблагодарили: 18 раз
 Раздают: 0  |  0 KB/s  ]   Качают: 0  |  0 KB/s  ] 
 Полного источника не было 3 года 
Сообщения
 Добавлено: 2011-02-12 15:16
Top-releaser
Аватара пользователя
Стаж: 7 лет 3 месяца
Возраст: 25
Сообщений: 1036
Спасибок: 2694
Лайков: 9

Быстрее пули / Faster

Изображение



Год выхода: 2010
Страна: США
Слоган: «Правосудие не для всех»
Жанр: боевик, триллер, драма, криминал
Продолжительность:01:37:57
Перевод:Профессиональный (многоголосый)

Режиссер: Джордж Тиллман мл.
Сценарий: Тони Гэйтон, Джо Гэйтон
Продюсер: Джо Гэйтон, Тони Гэйтон, Лиз Глоцер
Оператор: Майкл Грэйди
Композитор: Клинт Мэнселл

В ролях:Дуэйн "Скала" Джонсон, Билли Боб Торнтон, Оливер Джексон Коэн, Карла Гуджино,Мэгги Грэйс, Мун Бладгуд, Том Беренджер

Описание: Бывший преступник мстит за убийство родного брата во время ограбления десять лет назад, когда кто-то подставил нечистых на руку родственников.
KinoPoisk.ru: 6,3
IMDb.com: 7,0/10

Раздача группы:Изображение

Изображение

Качество: BDRip 1080p
Формат: MKV

Видео: MPEG4 Video (H264) 1920x800 23.98fps
Аудио: Dolby AC3 48000Hz 6ch


MediaInfo
General
Unique ID : 190349000155894378051949422407756738344 (0x8F33E2492261126F8DE277D6134EEF28)
Complete name : E:\Bystree.puli.(1080p).mkv
Format : Matroska
File size : 8.25 GiB
Duration : 1h 37mn
Overall bit rate : 12.0 Mbps
Movie name : by D!mka
Encoded date : UTC 2011-02-10 14:06:11
Writing application : mkvmerge v2.9.5 ('Tu es le seul') built on Jun 7 2009 11:07:07
Writing library : libebml v0.7.7 + libmatroska v0.8.1

Video
ID : 1
Format : AVC
Format/Info : Advanced Video Codec
Format profile : High@L4.1
Format settings, CABAC : Yes
Format settings, ReFrames : 5 frames
Format settings, GOP : M=1, N=16
Codec ID : V_MPEG4/ISO/AVC
Duration : 1h 37mn
Bit rate : 10.1 Mbps
Width : 1 920 pixels
Height : 800 pixels
Display aspect ratio : 2.40:1
Frame rate : 23.976 fps
Color space : YUV
Chroma subsampling : 4:2:0
Bit depth : 8 bits
Scan type : Progressive
Bits/(Pixel*Frame) : 0.274
Stream size : 6.74 GiB (82%)
Title : Быстрее пули / Faster / 2010
Writing library : x264 core 112 r1867 22bfd31
Encoding settings : cabac=1 / ref=5 / deblock=1:0:0 / analyse=0x3:0x133 / me=umh / subme=8 / psy=1 / psy_rd=1.00:0.00 / mixed_ref=1 / me_range=16 / chroma_me=1 / trellis=1 / 8x8dct=1 / cqm=0 / deadzone=21,11 / fast_pskip=1 / chroma_qp_offset=-2 / threads=24 / sliced_threads=0 / nr=0 / decimate=1 / interlaced=0 / constrained_intra=0 / bframes=3 / b_pyramid=2 / b_adapt=1 / b_bias=0 / direct=1 / weightb=1 / open_gop=0 / weightp=1 / keyint=250 / keyint_min=23 / scenecut=40 / intra_refresh=0 / rc=2pass / mbtree=0 / bitrate=10093 / ratetol=1.0 / qcomp=0.60 / qpmin=0 / qpmax=51 / qpstep=4 / cplxblur=20.0 / qblur=0.5 / ip_ratio=1.40 / pb_ratio=1.30 / aq=1:1.00
Language : English

Audio #1
ID : 2
Format : AC-3
Format/Info : Audio Coding 3
Mode extension : CM (complete main)
Codec ID : A_AC3
Duration : 1h 37mn
Bit rate mode : Constant
Bit rate : 448 Kbps
Channel(s) : 6 channels
Channel positions : Front: L C R, Side: L R, LFE
Sampling rate : 48.0 KHz
Bit depth : 16 bits
Compression mode : Lossy
Stream size : 314 MiB (4%)
Title : Profka
Language : Russian

Audio #2
ID : 3
Format : DTS
Format/Info : Digital Theater Systems
Codec ID : A_DTS
Duration : 1h 37mn
Bit rate mode : Constant
Bit rate : 1 510 Kbps
Channel(s) : 6 channels
Channel positions : Front: L C R, Side: L R, LFE
Sampling rate : 48.0 KHz
Bit depth : 24 bits
Compression mode : Lossy
Stream size : 1.03 GiB (13%)
Language : English

Свернуть
"Скриншоты"
Изображение
Изображение
Изображение
Изображение
Изображение
Свернуть


Последний раз редактировалось FoTP 2011-02-12 16:23, всего редактировалось 2 раз(а).
Не в сети
Профиль  
Начать новую темуОтветить на тему  [ 1 сообщение ] 
Вы не можете начинать темы
Вы не можете отвечать на сообщения
Вы не можете редактировать свои сообщения
Вы не можете удалять свои сообщения