Правила форума

  • В этом разделе создание новых тем Запрещено.
  • Для создания новых тем пользуйтесь Корневым разделом DVD и HD фильмы.
Начать новую темуОтветить на тему  [ 1 сообщение ] 
Торрент файл
Размер: 8.39 GB • Зарегистрирован: 3 года 10 месяцев • Статус: Проверено
Скачан: 11 раз • Желающих скачать: 0 • Поблагодарили: 5 раз
 Раздают: 0  |  0 KB/s  ]   Качают: 0  |  0 KB/s  ] 
 Полного источника не было 3 года 1 месяц 
Сообщения
 Добавлено: 2013-01-17 19:36
Аватара пользователя
Стаж: 4 года 11 месяцев
Сообщений: 24
Спасибок: 357
Быстрый и мертвый
The Quick and the Dead


«You can't ignore her. You can't beat her. You can't resist her. You can't win...»

Изображение


Год выхода: 1995
Страна: США, Япония

Жанр: боевик, триллер, вестерн
Продолжительность: 01:47:46
Перевод: Профессиональный (полное дублирование)

Режиссер: Сэм Рэйми
Сценарий: Саймон Мур
Продюсер: Чак Биндер, Джошуа Донен, Тоби Джаффе
Оператор: Данте Спинотти
Композитор: Алан Сильвестри

В ролях: Шэрон Стоун, Рассел Кроу, Джин Хэкмен, Леонардо ДиКаприо, Тобин Белл, Кит Дэвид, Лэнс Хенриксен, Гэри Синиз, Робертс Блоссом, Кевин Конуэй

Описание: Пустыня, и посреди нее — маленький грязный городок. Здесь только женщины и больные не носят кобуры на поясе. В городе хозяйничает Джон Ирод — жестокий и хладнокровный человек. Все его боятся, и каждая собака его знает. Если он разрешил тебе — ты можешь жить.

Но однажды на горизонте появляется незнакомый всадник. Он въезжает в город и медленно движется по главной улице. Но, вот незадача: это не он, а она — таинственная женщина-ковбой. Никто еще не догадывается, что появление Эллен изменит жизнь всего городка…


Изображение

Изображение

Качество BDRip 720p
Формат: Mkv

Видео: MPEG4 Video (H264) 1280x692 23.98fps
Аудио 1: AC-3 48000 Hz, 6ch, 640 kbps
Аудио 2: DTS 48000 Hz, 6ch, 1536 kbps
Subtitle: Utf-8 (Rus)

Изображение

MediaInfo
General
Unique ID : 229709512377681798668996630430809592218 (0xACD0715DF4441F75BE0B68026170119A)
Complete name : K:\Download\The Quick and the Dead [720p] [BDRip].mkv
Format : Matroska
Format version : Version 2
File size : 8.39 GiB
Duration : 1h 47mn
Overall bit rate : 11.1 Mbps
Movie name : The Quick and the Dead (1995)
Encoded date : UTC 2009-10-20 12:52:07
Writing application : mkvmerge v2.9.5 ('Tu es le seul') built on Jun 7 2009 11:07:07
Writing library : libebml v0.7.7 + libmatroska v0.8.1
Attachment : Yes / Yes / Yes

Video
ID : 1
Format : AVC
Format/Info : Advanced Video Codec
Format profile : High@L4.1
Format settings, CABAC : Yes
Format settings, ReFrames : 8 frames
Codec ID : V_MPEG4/ISO/AVC
Duration : 1h 47mn
Bit rate : 8 994 Kbps
Width : 1 280 pixels
Height : 692 pixels
Display aspect ratio : 1.850
Frame rate : 23.976 fps
Color space : YUV
Chroma subsampling : 4:2:0
Bit depth : 8 bits
Scan type : Progressive
Bits/(Pixel*Frame) : 0.424
Stream size : 6.61 GiB (79%)
Title : 1280x692, 23.98fps, x264, 8994 kbps
Writing library : x264 core 75 r1251M e553a4c
Encoding settings : cabac=1 / ref=8 / deblock=1:-3:-3 / analyse=0x3:0x133 / me=esa / subme=9 / psy=1 / psy_rd=0.9:0.7 / mixed_ref=1 / me_range=32 / chroma_me=1 / trellis=2 / 8x8dct=1 / cqm=0 / deadzone=21,11 / chroma_qp_offset=-4 / threads=12 / nr=0 / decimate=0 / mbaff=0 / bframes=3 / b_pyramid=1 / b_adapt=2 / b_bias=0 / direct=3 / wpredb=1 / keyint=250 / keyint_min=25 / scenecut=40 / rc=2pass / mbtree=0 / bitrate=8994 / ratetol=1.0 / qcomp=0.60 / qpmin=10 / qpmax=51 / qpstep=4 / cplxblur=20.0 / qblur=0.5 / ip_ratio=1.40 / pb_ratio=1.30 / aq=1:0.80
Language : English
Default : Yes
Forced : No

Audio #1
ID : 2
Format : AC-3
Format/Info : Audio Coding 3
Mode extension : CM (complete main)
Codec ID : A_AC3
Duration : 1h 47mn
Bit rate mode : Constant
Bit rate : 640 Kbps
Channel(s) : 6 channels
Channel positions : Front: L C R, Side: L R, LFE
Sampling rate : 48.0 KHz
Bit depth : 16 bits
Compression mode : Lossy
Stream size : 493 MiB (6%)
Title : Русский, AC3, 48 kHz, 6ch, 640 kbps
Language : Russian
Default : Yes
Forced : No

Audio #2
ID : 3
Format : DTS
Format/Info : Digital Theater Systems
Codec ID : A_DTS
Duration : 1h 47mn
Bit rate mode : Constant
Bit rate : 1 510 Kbps
Channel(s) : 6 channels
Channel positions : Front: L C R, Side: L R, LFE
Sampling rate : 48.0 KHz
Bit depth : 24 bits
Compression mode : Lossy
Stream size : 1.14 GiB (14%)
Title : Английский, DTS, 48 kHz, 6ch, 1536 kbps
Language : English
Default : No
Forced : No

Text #1
ID : 4
Format : UTF-8
Codec ID : S_TEXT/UTF8
Codec ID/Info : UTF-8 Plain Text
Title : Русские (на непереведённые моменты)
Language : Russian
Default : Yes
Forced : No

Text #2
ID : 5
Format : UTF-8
Codec ID : S_TEXT/UTF8
Codec ID/Info : UTF-8 Plain Text
Title : Русские (полные)
Language : Russian
Default : No
Forced : No

Text #3
ID : 6
Format : ASS
Codec ID : S_TEXT/ASS
Codec ID/Info : Advanced Sub Station Alpha
Compression mode : Lossless
Title : Английские
Language : English
Default : No
Forced : No



Свернуть
Скриншоты
Изображение

Изображение

Изображение

Изображение

Изображение

Свернуть


Последний раз редактировалось Dimon'Ko 2013-01-17 22:56, всего редактировалось 1 раз.
Не в сети
Профиль  
Начать новую темуОтветить на тему  [ 1 сообщение ] 
Вы не можете начинать темы
Вы не можете отвечать на сообщения
Вы не можете редактировать свои сообщения
Вы не можете удалять свои сообщения