Правила форума

  • В этом разделе создание новых тем Запрещено.
  • Для создания новых тем пользуйтесь Корневым разделом DVD и HD фильмы.
Начать новую темуОтветить на тему  [ Сообщений: 10 ] 
Торрент файл
Размер: 10.79 GB • Зарегистрирован: 3 года 3 месяца • Статус: T Временный релиз
Скачан: 58 раз • Желающих скачать: 0 • Поблагодарили: 18 раз
 Раздают: 0  |  0 KB/s  ]   Качают: 0  |  0 KB/s  ] 
 Полного источника не было 2 года 6 месяцев 
Сообщения
 Добавлено: 2013-08-08 14:08
Книголюб
Аватара пользователя
Стаж: 7 лет 2 месяца
Сообщений: 2823
Спасибок: 48826
Лайков: 73
Битва проклятых
Battle of the Damned

«He didn't come here to be a hero, but things change.»

Изображение


Год выпуска: 2013
Страна: США, Сингапур
Жанр: фантастика, боевик, приключения
Продолжительность: 01:28:37
Перевод: Любительский (двухголосый закадровый)

Режиссёр: Кристофер Хаттон
В ролях: Дольф Лундгрен, Мэтт Доран, Дэвид Филд, Эстебан Куето, Лидия Лук, Мелани Занетти, Ода Мария, Джен Санг Отербридж, Джефф Прюитт, Бродус Мэттисон
Описание: Согласно сюжету, где-то на краю цивилизации тестовая лаборатория лежит в руинах. Из-за досадной ошибки службы безопасности лаборатории произошла катастрофа. Огромное число людей в одночасье превратились в зомби. И лишь небольшая кучка выживших, возглавляемая отважным солдатом Максом Гатлингом, с оружием в руках пробирается сквозь армию мутировавших. Вроде бы, пока все в духе традиционных зомби-хорроров… Однако нашим героям неведома другая смертельная опасность. Из-за все той же аварии на свободе оказались прототипы военных роботов. Хорошо вооруженные, бронированные и чрезвычайно опасные машины по замыслу их создателей должны были в случае непредвиденной ситуации начать немедленную борьбу с живыми мертвецами. Но роботы не были доведены до ума и оказались неспособны отличать обычных людей от зомби.
Мировая премьера: 12 июля 2013
Изображение 4.80029

Качество: BDRip 1080p
Формат: MKV
Видео кодек: H264 (AVC)
Аудио кодек: AC3 (Dolby Digital)
Видео: 1920x1080 23.976fps 15.8 Mbps
Аудио #1: RUS:AC3 48000Hz 6ch 448 Kbps
Аудио #2: ENG:DTS 48000Hz 6ch 842 Kbps / 755 Kbps
MediaInfo
General
Unique ID : 242725111165091732630530238255414958358 (0xB69B27EE9DF650F8A4B6218650ECD916)
Complete name : K:\Torrent\Battle.of.the.Damned..mkv
Format : Matroska
Format version : Version 2
File size : 10.8 GiB
Duration : 1h 28mn
Overall bit rate mode : Variable
Overall bit rate : 17.4 Mbps
Encoded date : UTC 2013-08-07 21:44:03
Writing application : mkvmerge v5.8.0 ('No Sleep / Pillow') built on Sep 2 2012 15:37:04
Writing library : libebml v1.2.3 + libmatroska v1.3.0

Video
ID : 1
Format : AVC
Format/Info : Advanced Video Codec
Format profile : High@L4.1
Format settings, CABAC : Yes
Format settings, ReFrames : 2 frames
Codec ID : V_MPEG4/ISO/AVC
Duration : 1h 28mn
Bit rate mode : Variable
Bit rate : 15.8 Mbps
Maximum bit rate : 30.2 Mbps
Width : 1 920 pixels
Height : 1 080 pixels
Display aspect ratio : 16:9
Frame rate : 23.976 fps
Color space : YUV
Chroma subsampling : 4:2:0
Bit depth : 8 bits
Scan type : Progressive
Bits/(Pixel*Frame) : 0.318
Stream size : 9.78 GiB (91%)
Language : English
Default : Yes
Forced : Yes

Audio #1
ID : 2
Format : AC-3
Format/Info : Audio Coding 3
Mode extension : CM (complete main)
Codec ID : A_AC3
Duration : 1h 28mn
Bit rate mode : Constant
Bit rate : 448 Kbps
Channel(s) : 6 channels
Channel positions : Front: L C R, Side: L R, LFE
Sampling rate : 48.0 KHz
Bit depth : 16 bits
Compression mode : Lossy
Stream size : 284 MiB (3%)
Language : Russian
Default : Yes
Forced : Yes

Audio #2
ID : 3
Format : DTS
Format/Info : Digital Theater Systems
Format profile : MA / Core
Codec ID : A_DTS
Duration : 1h 28mn
Bit rate mode : Variable
Bit rate : 842 Kbps / 755 Kbps
Channel(s) : 8 channels / 6 channels
Channel positions : Front: L C R, Side: L R, Back: L R, LFE / Front: L C R, Side: L R, LFE
Sampling rate : 48.0 KHz
Bit depth : 16 bits
Compression mode : Lossless / Lossy
Language : English
Default : No
Forced : No

Menu
00:00:00.000 : en:00:00:00.000
00:01:00.978 : en:00:01:00.978
00:14:28.493 : en:00:14:28.493
00:15:47.989 : en:00:15:47.989
00:22:51.036 : en:00:22:51.036
00:31:10.994 : en:00:31:10.994
00:37:42.969 : en:00:37:42.969
00:45:03.951 : en:00:45:03.951
00:51:41.974 : en:00:51:41.974
01:03:07.951 : en:01:03:07.951
01:14:21.332 : en:01:14:21.332
01:25:15.902 : en:01:25:15.902


Свернуть

Скриншоты
Изображение
Изображение
Изображение
Свернуть
Не в сети
Профиль  
 Добавлено: 2013-08-08 16:57 (спустя 2 часа 48 минут)
Аватара пользователя
Стаж: 8 лет 3 месяца
Сообщений: 10
Спасибок: 44
Лундгрен, зомби, роботы... :sh_ok: что дальше? Сталонэ, вампиры, пришельцы??? :ps_ih:
Не в сети
Профиль  
 Добавлено: 2013-08-08 17:07 (спустя 10 минут)
Аватара пользователя
Стаж: 8 лет
Сообщений: 1390
Спасибок: 39
Лайков: 64
BOSS890io
не...Стетхем...оборотни...русалки :-D
Не в сети
Профиль  
 Добавлено: 2013-08-08 17:09 (спустя 2 минуты)
Аватара пользователя
Стаж: 7 лет 4 месяца
Сообщений: 378
Лайков: 269
Не-а. Шварценегер, лешие, андроиды :v_i_k_i_n_g:
Не в сети
Профиль  
 Добавлено: 2013-08-08 17:45 (спустя 36 минут)
Аватара пользователя
Стаж: 8 лет 9 месяцев
Сообщений: 90
Лайков: 4
что уж не 100Гб объём то при любительском переводе?
Не в сети
Профиль  
 Добавлено: 2013-08-08 17:49 (спустя 3 минуты)
Аватара пользователя
Стаж: 8 лет 9 месяцев
Сообщений: 137
Лайков: 6
Уг,Скучнейшие диалоги,изъезженный сюжет,общая атмосфера тоски.Заснул пока смотрел
Не в сети
Профиль  
 Добавлено: 2013-08-09 09:44 (спустя 15 часов)
Модератор
Аватара пользователя
Стаж: 8 лет 1 месяц
Сообщений: 1991
Спасибок: 129864
Лайков: 20

coldun:

Качество: HQRip-AVC
????
_________________
Себе ты можешь не качать, но раздавать другим обязан!
Не в сети
Профиль  
 Добавлено: 2013-08-10 14:59 (спустя 1 день 5 часов)
Аватара пользователя
Стаж: 4 года 9 месяцев
Возраст: 26
Сообщений: 104
Спасибок: 528
Лайков: 8
блин качество зашибись а озвучка огорчила :(
Не в сети
Профиль  
 Добавлено: 2013-08-10 19:45 (спустя 4 часа)
Стаж: 7 лет 3 месяца
Сообщений: 21
фильм то как?
Не в сети
Профиль  
 Добавлено: 2013-08-12 13:58 (спустя 1 день 18 часов)
Аватара пользователя
Стаж: 4 года 9 месяцев
Возраст: 26
Сообщений: 104
Спасибок: 528
Лайков: 8

misha8312:

фильм то как?
так себе, больно туповат!
Не в сети
Профиль  
Начать новую темуОтветить на тему  [ Сообщений: 10 ] 
Вы не можете начинать темы
Вы не можете отвечать на сообщения
Вы не можете редактировать свои сообщения
Вы не можете удалять свои сообщения