Правила форума

  • В этом разделе создание новых тем Запрещено.
  • Для создания новых тем пользуйтесь Корневым разделом DVD и HD фильмы.
Начать новую темуОтветить на тему  [ Сообщений: 5 ] 
Торрент файл
Размер: 5.06 GB • Зарегистрирован: 3 года 3 месяца • Статус: T Временный релиз
Скачан: 143 раза • Желающих скачать: 0 • Поблагодарили: 47 раз
 Раздают: 0  |  0 KB/s  ]   Качают: 0  |  0 KB/s  ] 
 Полного источника не было 1 год 8 месяцев 
Сообщения
 Добавлено: 2013-08-09 13:52
Руководитель релиз-группы
Аватара пользователя
Стаж: 7 лет 2 месяца
Возраст: 4
Сообщений: 5213
Спасибок: 19350
Лайков: 2312
Битва проклятых / Battle of the Damned

Изображение


Год выпуска: 2013
Страна: США, Сингапур / Boku Films, BOTD Productions
Жанр: Фантастика, боевик, приключения
Продолжительность: 01:28:37
Перевод: Профессиональный (многоголосый закадровый)
Субтитры: Нет

Режиссёр: Кристофер Хаттон
В ролях: Дольф Лундгрен, Мэтт Доран, Дэвид Филд, Эстебан Куето, Лидия Лук, Мелани Занетти, Ода Мария, Джен Санг Отербридж, Джефф Прюитт, Бродус Мэттисон
Описание: Согласно сюжету, где-то на краю цивилизации тестовая лаборатория лежит в руинах. Из-за досадной ошибки службы безопасности лаборатории произошла катастрофа. Огромное число людей в одночасье превратились в зомби. И лишь небольшая кучка выживших, возглавляемая отважным солдатом Максом Гатлингом, с оружием в руках пробирается сквозь армию мутировавших. Вроде бы, пока все в духе традиционных зомби-хорроров… Однако нашим героям неведома другая смертельная опасность. Из-за все той же аварии на свободе оказались прототипы военных роботов. Хорошо вооруженные, бронированные и чрезвычайно опасные машины по замыслу их создателей должны были в случае непредвиденной ситуации начать немедленную борьбу с живыми мертвецами. Но роботы не были доведены до ума и оказались неспособны отличать обычных людей от зомби.


Формат: MKV
Качество: BDRip 1080p
Видео: 6047 Kb/s, 1920x1080
Аудио #1: Russian: AC3, 448 Kb/s (6 ch ), English: DTS, 1510 Kb/s (6 ch) [Профессиональный (многоголосый закадровый)]
Субтитры: Нет
Скриншоты
Изображение
Изображение
Изображение
Свернуть

MI
п»їGeneral
Unique ID : 239067472865452134223344184991099859051 (0xB3DAB870DB4D04C98185034E8763306B)
Complete name : Battle.Of.The.Damned.2013.BluRay.1080p.mkv
Format : Matroska
Format version : Version 4 / Version 2
File size : 5.06 GiB
Duration : 1h 28mn
Overall bit rate : 8 167 Kbps
Encoded date : UTC 2013-08-07 19:52:39
Writing application : mkvmerge v6.3.0 ('You can't stop me!') built on Jun 28 2013 20:09:41
Writing library : libebml v1.3.0 + libmatroska v1.4.0

Video
ID : 1
Format : AVC
Format/Info : Advanced Video Codec
Format profile : High@L4.1
Format settings, CABAC : Yes
Format settings, ReFrames : 4 frames
Codec ID : V_MPEG4/ISO/AVC
Duration : 1h 28mn
Bit rate : 6 047 Kbps
Width : 1 920 pixels
Height : 1 080 pixels
Display aspect ratio : 16:9
Frame rate mode : Constant
Frame rate : 23.976 fps
Color space : YUV
Chroma subsampling : 4:2:0
Bit depth : 8 bits
Scan type : Progressive
Bits/(Pixel*Frame) : 0.122
Stream size : 3.74 GiB (74%)
Writing library : x264 core 133 r2334+704+50 a7549b7 tMod [8-bit@4:2:0 X86_64]
Encoding settings : cabac=1 / ref=4 / deblock=1:-3:-3 / analyse=0x3:0x113 / me=umh / subme=10 / psy=1 / fade_compensate=0.00 / psy_rd=1.05:0.00 / mixed_ref=1 / me_range=32 / chroma_me=1 / trellis=2 / 8x8dct=1 / cqm=0 / deadzone=21,11 / fast_pskip=1 / chroma_qp_offset=-2 / threads=64 / lookahead_threads=8 / sliced_threads=0 / nr=0 / decimate=1 / interlaced=0 / bluray_compat=0 / constrained_intra=0 / fgo=0 / bframes=8 / b_pyramid=2 / b_adapt=2 / b_bias=0 / direct=3 / weightb=1 / open_gop=0 / weightp=2 / keyint=240 / keyint_min=23 / scenecut=40 / intra_refresh=0 / rc_lookahead=50 / rc=crf / mbtree=1 / crf=17.0000 / qcomp=0.70 / qpmin=0 / qpmax=69 / qpstep=4 / vbv_maxrate=50000 / vbv_bufsize=50000 / crf_max=0.0 / nal_hrd=none / ip_ratio=1.40 / aq=4:0.90 / aq-sensitivity=10.00 / aq-factor=1.00:1.00:1.00 / aq2=0 / aq3=0
Language : English
Default : Yes
Forced : No

Audio #1
ID : 2
Format : AC-3
Format/Info : Audio Coding 3
Mode extension : CM (complete main)
Format settings, Endianness : Big
Codec ID : A_AC3
Duration : 1h 28mn
Bit rate mode : Constant
Bit rate : 448 Kbps
Channel(s) : 6 channels
Channel positions : Front: L C R, Side: L R, LFE
Sampling rate : 48.0 KHz
Bit depth : 16 bits
Compression mode : Lossy
Stream size : 284 MiB (5%)
Title : Пираты
Language : Russian
Default : Yes
Forced : No

Audio #2
ID : 3
Format : DTS
Format/Info : Digital Theater Systems
Mode : 16
Format settings, Endianness : Big
Codec ID : A_DTS
Duration : 1h 28mn
Bit rate mode : Constant
Bit rate : 1 510 Kbps
Channel(s) : 6 channels
Channel positions : Front: L C R, Side: L R, LFE
Sampling rate : 48.0 KHz
Bit depth : 24 bits
Compression mode : Lossy
Stream size : 957 MiB (18%)
Language : English
Default : No
Forced : No

Menu
00:00:00.000 : en:00:00:00.000
00:01:00.978 : en:00:01:00.978
00:14:28.493 : en:00:14:28.493
00:15:47.989 : en:00:15:47.989
00:22:51.036 : en:00:22:51.036
00:31:10.994 : en:00:31:10.994
00:37:42.969 : en:00:37:42.969
00:45:03.951 : en:00:45:03.951
00:51:41.974 : en:00:51:41.974
01:03:07.951 : en:01:03:07.951
01:14:21.332 : en:01:14:21.332
01:25:15.902 : en:01:25:15.902
Свернуть


Последний раз редактировалось zima-letoru 2013-08-09 15:41, всего редактировалось 1 раз.
 di-ys1 и rotametr нравится это.
Не в сети
Профиль  
 Добавлено: 2013-08-09 15:36 (спустя 1 час 43 минуты)
Модератор
Аватара пользователя
Стаж: 8 лет 11 месяцев
Сообщений: 516
Спасибок: 26888
Лайков: 1
Внимание: Для DVD и HD-разделов необходимы развернутые технические данные:
Для HD: Отчет MediaInfo или BDInfo (под спойлером)
Не в сети
Профиль  
 Добавлено: 2013-08-09 16:05 (спустя 29 минут)
Стаж: 4 года
Сообщений: 16
По моему Дольф Лундгрен в фильме слишком молодой.
Не в сети
Профиль  
 Добавлено: 2013-08-10 14:51 (спустя 22 часа)
Аватара пользователя
Стаж: 4 года 9 месяцев
Возраст: 26
Сообщений: 104
Спасибок: 528
Лайков: 8

baksa23:

По моему Дольф Лундгрен в фильме слишком молодой.
ага, лет так на 20 выглядит :-D
Не в сети
Профиль  
 Добавлено: 2013-08-18 11:42 (спустя 7 дней)
Top-releaser
Аватара пользователя
Стаж: 7 лет 4 месяца
Возраст: 38
Сообщений: 5347
Спасибок: 10065
Лайков: 2936
Фильм ни о чем, так, время убить, чтоб мозги ничем не заняты были...
Не в сети
Профиль  
Начать новую темуОтветить на тему  [ Сообщений: 5 ] 
Вы не можете начинать темы
Вы не можете отвечать на сообщения
Вы не можете редактировать свои сообщения
Вы не можете удалять свои сообщения