Правила форума

  • В этом разделе создание новых тем Запрещено.
  • Для создания новых тем пользуйтесь Корневым разделом DVD и HD фильмы.
Начать новую темуОтветить на тему  [ 1 сообщение ] 
Торрент файл
Размер: 4.24 GB • Зарегистрирован: 3 года 11 месяцев • Статус: Проверено
Скачан: 31 раз • Желающих скачать: 0 • Поблагодарили: 10 раз
 Раздают: 0  |  0 KB/s  ]   Качают: 0  |  0 KB/s  ] 
 Полного источника не было 3 года 1 месяц 
Сообщения
 Добавлено: 2012-12-26 18:19
Книголюб
Аватара пользователя
Стаж: 7 лет 2 месяца
Сообщений: 2823
Спасибок: 48828
Лайков: 73
Битва в пустыне
The Objective

Изображение


Год выпуска: 2008
Страна: США, Марокко
Слоган: «We haven't seen the real enemy.»
Жанр: ужасы, фантастика, триллер
Продолжительность: 01:26:20
Перевод: Профессиональный (многоголосый закадровый)

Режиссёр: Дэниэл Мирик
В ролях: Йонас Болл, Джон Уэртас, Майкл С. Уильямс, Сэм Хантер, Джефф Прюэтт, Кенни Тейлор, Чемс-Эддин Зинун
Описание: Афганистан, ноябрь 2001. Два месяца спустя после нападений на всемирный торговый центр. Элитный отряд спецподразделения посылают в Афганскую пустыню, для того, чтобы они вступили в контакт с человеком, известным как «Мохаммед Абан». Однако вместо запланированной встречи, они столкнулись с чем-то неожиданным… С таким, ко встрече к чему их не подготовило даже элитное обучение.
Мировая премьера: 24 апреля 2008
Бюджет: $4 000 000
Изображение 5.011428

Качество: BDRip 1080p
Формат: MKV
Формат: MKV
Видео кодек: AVC
Аудио кодек: AC3 (Dolby Digital)
Видео: 1920x1080 23.976fps 6 218 Kbps
Аудио #1: 48000Hz 6ch 384 Kbps
MediaInfo
eneral
Unique ID : 191813292978677560874941569846890354906 (0x904DE57EEBDBDDFF8CB406F60D8658DA)
Complete name : K:\Torrent\The Objective..mkv
Format : Matroska
Format version : Version 2
File size : 4.24 GiB
Duration : 1h 30mn
Overall bit rate mode : Variable
Overall bit rate : 6 736 Kbps
Movie name : Rip by Tembr
Encoded date : UTC 2011-03-11 04:49:00
Writing application : mkvmerge v3.2.0 ('Beginnings') built on Feb 12 2010 16:46:17
Writing library : libebml v0.7.9 + libmatroska v0.8.1

Video
ID : 1
Format : AVC
Format/Info : Advanced Video Codec
Format profile : High@L4.1
Format settings, CABAC : Yes
Format settings, ReFrames : 3 frames
Codec ID : V_MPEG4/ISO/AVC
Duration : 1h 30mn
Bit rate mode : Variable
Bit rate : 6 218 Kbps
Nominal bit rate : 6 561 Kbps
Maximum bit rate : 17.5 Mbps
Width : 1 920 pixels
Height : 1 080 pixels
Display aspect ratio : 16:9
Frame rate : 23.976 fps
Color space : YUV
Chroma subsampling : 4:2:0
Bit depth : 8 bits
Scan type : Progressive
Bits/(Pixel*Frame) : 0.125
Stream size : 3.91 GiB (92%)
Title : Битва в пустыне.[NoLimits-Team.ru]
Writing library : x264 core 112 r1867 22bfd31
Encoding settings : cabac=1 / ref=1 / deblock=1:0:0 / analyse=0x3:0x3 / me=dia / subme=1 / psy=1 / psy_rd=0.00:0.00 / mixed_ref=0 / me_range=16 / chroma_me=1 / trellis=0 / 8x8dct=1 / cqm=0 / deadzone=21,11 / fast_pskip=1 / chroma_qp_offset=0 / threads=3 / sliced_threads=0 / slices=4 / nr=0 / decimate=1 / interlaced=0 / constrained_intra=0 / bframes=3 / b_pyramid=1 / b_adapt=1 / b_bias=0 / direct=1 / weightb=1 / open_gop=0 / weightp=1 / keyint=24 / keyint_min=1 / scenecut=40 / intra_refresh=0 / rc_lookahead=0 / rc=abr / mbtree=0 / bitrate=6561 / ratetol=1.0 / qcomp=0.60 / qpmin=0 / qpmax=51 / qpstep=4 / vbv_maxrate=17500 / vbv_bufsize=14500 / nal_hrd=vbr / ip_ratio=1.10 / pb_ratio=1.10 / aq=1:1.00
Language : English
Default : Yes
Forced : No

Audio
ID : 2
Format : AC-3
Format/Info : Audio Coding 3
Mode extension : CM (complete main)
Codec ID : A_AC3
Duration : 1h 30mn
Bit rate mode : Constant
Bit rate : 384 Kbps
Channel(s) : 6 channels
Channel positions : Front: L C R, Side: L R, LFE
Sampling rate : 48.0 KHz
Bit depth : 16 bits
Compression mode : Lossy
Stream size : 247 MiB (6%)
Title : Профессиональное (многоголосое)
Language : Russian
Default : Yes
Forced : No


Свернуть

Скриншоты
Изображение
Изображение
Изображение
Свернуть
Не в сети
Профиль  
Начать новую темуОтветить на тему  [ 1 сообщение ] 
Вы не можете начинать темы
Вы не можете отвечать на сообщения
Вы не можете редактировать свои сообщения
Вы не можете удалять свои сообщения