Правила форума

  • В этом разделе создание новых тем Запрещено.
  • Для создания новых тем пользуйтесь Корневым разделом DVD и HD фильмы.
Начать новую темуОтветить на тему  [ 1 сообщение ] 
Торрент файл
Размер: 25.17 GB • Зарегистрирован: 4 года 2 месяца • Статус: Проверено
Скачан: 4 раза • Желающих скачать: 0 • Поблагодарили: 3 раза
 Раздают: 0  |  0 KB/s  ]   Качают: 0  |  0 KB/s  ] 
 Полного источника не было 3 года 2 месяца 
Сообщения
 Добавлено: 2012-09-24 17:33
Модератор релиз-группы
Аватара пользователя
Стаж: 9 лет 1 месяц
Возраст: 97
Сообщений: 11659
Спасибок: 6532
Лайков: 269
Блуберри / Blueberry

Изображение


Год выпуска: 2004
Страна: Франция, Мексика, Великобритания
Жанр: Приключения, вестерн
Продолжительность: 02:03:42
Перевод: Профессиональный (дубляж)

Режиссёр: Ян Кунен

В ролях: Венсан Кассель, Джульетт Льюис, Майкл Мэдсен, Темуэра Моррисон, Эрнест Боргнайн, Джимон Хонсу, Хью О’Конор, Джеффри Льюис, Николь Хильтц, Катери Уолкер, Ваина Джоканте, Чеки Карио, Эдди Иззард, Колм Мини, Доминик Беттенфельд, Антонио Монрой, Уильям Лайтнинг, Ян Кунен, Франсуа Леванталь, Джоэль Гонзалес, Хуан Мануэль Берналь, Франсуа Берковичи, Ричард Джонс, Вэл Эйвери, Паскаль Демолон, Летисия Гутиеррез, Тецуо Нагата, Сирил Дюпуа, Пол Родден, Хавьер Клаве, Карл Браун, Жан Жиро

Описание: Майк Блуберри — искатель приключений с Дикого Запада, работающий шерифом в небольшом захолустном городке, заводит странную дружбу с индейцами, которые когда-то спасли его от верной гибели. Однажды в городке появляется таинственный незнакомец по имени Блонт, и Майк с удивлением узнает в нем своего заклятого врага, первая встреча с которым чуть не стоила Блуберри жизни. На этот раз Блонт охотится за несметными сокровищами, спрятанными индейцами в Скалистых горах. Жаждущий мести, Блуберри отправляется за ним в погоню…
Изображение

Качество: Blu-Ray Remux
Формат: MKV
Видео кодек: MPEG-4
Аудио кодек: AC3 (Dolby Digital)
Видео: MPEG-4 AVC, 29.3 Mбит/с, 1920х1080, 24.000 fps
Аудио #1: Русский AC3, 6 ch, 448 Кбит/с [Профессиональный (дубляж)]
Скриншоты
Изображение

Изображение

Изображение

Изображение
Свернуть
Mi
Format : Matroska
Format version : Version 2
File size : 25.2 GiB
Duration : 2h 3mn
Overall bit rate mode : Constant
Overall bit rate : 29.1 Mbps
Encoded date : UTC 2012-09-24 13:59:54
Writing application : mkvmerge v5.8.0 ('No Sleep / Pillow') built on Sep 2 2012 15:37:04
Writing library : libebml v1.2.3 + libmatroska v1.3.0

Video
ID : 1
Format : AVC
Format/Info : Advanced Video Codec
Format profile : High@L4.1
Format settings, CABAC : Yes
Format settings, ReFrames : 4 frames
Muxing mode : Header stripping
Codec ID : V_MPEG4/ISO/AVC
Duration : 2h 3mn
Bit rate mode : Constant
Bit rate : 28.1 Mbps
Nominal bit rate : 30.0 Mbps
Width : 1 920 pixels
Height : 1 080 pixels
Display aspect ratio : 16:9
Frame rate : 24.000 fps
Standard : NTSC
Color space : YUV
Chroma subsampling : 4:2:0
Bit depth : 8 bits
Scan type : Progressive
Bits/(Pixel*Frame) : 0.565
Stream size : 24.3 GiB (96%)
Default : Yes
Forced : No
Color primaries : BT.709-5, BT.1361, IEC 61966-2-4, SMPTE RP177
Transfer characteristics : BT.709-5, BT.1361
Matrix coefficients : BT.709-5, BT.1361, IEC 61966-2-4 709, SMPTE RP177

Audio
ID : 2
Format : AC-3
Format/Info : Audio Coding 3
Mode extension : CM (complete main)
Format settings, Endianness : Big
Muxing mode : Header stripping
Codec ID : A_AC3
Duration : 2h 3mn
Bit rate mode : Constant
Bit rate : 448 Kbps
Channel(s) : 6 channels
Channel positions : Front: L C R, Side: L R, LFE
Sampling rate : 48.0 KHz
Bit depth : 16 bits
Compression mode : Lossy
Stream size : 396 MiB (2%)
Title : Dubbed
Language : Russian
Default : Yes
Forced : No

Свернуть
Не в сети
Профиль  
Начать новую темуОтветить на тему  [ 1 сообщение ] 
Вы не можете начинать темы
Вы не можете отвечать на сообщения
Вы не можете редактировать свои сообщения
Вы не можете удалять свои сообщения