Правила форума

  • В этом разделе создание новых тем Запрещено.
  • Для создания новых тем пользуйтесь Корневым разделом DVD и HD фильмы.
Начать новую темуОтветить на тему  [ 1 сообщение ] 
Торрент файл
Размер: 4.37 GB • Зарегистрирован: 5 лет 3 месяца • Статус: Проверено
Скачан: 62 раза • Желающих скачать: 0 • Поблагодарили: 18 раз
 Раздают: 0  |  0 KB/s  ]   Качают: 0  |  0 KB/s  ] 
 Полного источника не было 3 года 2 месяца 
Сообщения
 Добавлено: 2013-07-05 19:17
Top-releaser
Аватара пользователя
Стаж: 8 лет 7 месяцев
Сообщений: 1286
Спасибок: 3420
Лайков: 7
Бобер / The Beaver
«Нет худа без бобра!»

Изображение
Год выпуска: 2011
Страна: США, ОАЭ
Жанр: драма
Продолжительность: 01:31:01
Перевод: Профессиональный (полное дублирование)

Режиссер: Джоди Фостер
Сценарий: Кайл Киллен
Продюсер: Стив Голин, Кейт Рэдмон, Энн Рурк, Дайян Дрейер
Оператор: Хаген Богданский
Композитор: Марсело Зарвос

В ролях: Мэл Гибсон, Джоди Фостер, Черри Джонс, Антон Ельчин, Райли Стюарт, Захари Бут, Дженнифер Лоуренс, Джефф Корбетт, Бэйлен Томас, Сэм Бреслин Райт, Келли Коффилд, Майкл Ривера
Дублёры: Владимир Антоник, Елена Соловьева, Евгений Вальц, Виталий Герасимов, Глеб Пускепалис, Анна Слю, Алина Ольшанская, Александр Колесников, Наталья Сапецкая, Алексей Розин
Описание: Уолтер Блэк - успешный бизнесмен, счастливый муж и отец. Одно несчастье - депрессия отравляет все его существование. Полноту и радость жизни Уолтеру возвращает кукла бобер. Надев ее на руку, Уолтер обретает второе дыхание. Говорящий бобер восстанавливает мир в его отношениях с женой, делает Уолтера кумиром детей и даже берет на себя управление компанией. Родные и близкие в шоке от эксцентричного поведения Уолтера, но он уже и сам не знает, кто главнее - он или бобер.

Раздача: Изображение

Изображение


Бюджет: $21 000 000
Сборы в мире: $6 370 816
Сборы в США: $970 816
Сборы в России: $237 065
Мировая премьера: 16 марта 2011
Изображение Релиз на DVD: 25 августа 2011, «Вольга»
MPAA: Изображение
Качество: BDRip
Формат: Matroska
Видео: AVC; 1920x800 (2.40:1); 6349 Kbps; 23,976 fps; 0,172 bpp
Аудио: Russian; AC3; 384 Kbps; CBR; 6 ch
MediaInfo
Общее
Уникальный идентификатор : 181820161954933850170326934430201815343 (0x88C94A18C154E1489A6D431ABDAE212F)
Полное имя : E:\Видео\The.Beaver.2011.BDRip.1080p[R.G.KiNOvNiNO].mkv
Формат : Matroska
Версия формата : Version 2
Размер файла : 4,37 Гбайт
Продолжительность : 1 ч. 31 м.
Общий поток : 6870 Кбит/сек
Название фильма : Rip by Aspro
Дата кодирования : UTC 2011-08-22 07:20:05
Программа кодирования : mkvmerge v3.2.0 ('Beginnings') built on Feb 12 2010 16:46:17
Библиотека кодирования : libebml v0.7.9 + libmatroska v0.8.1

Видео
Идентификатор : 1
Формат : AVC
Формат/Информация : Advanced Video Codec
Профиль формата : High@L4.0
Параметр CABAC формата : Да
Параметр ReFrames формата : 2 кадра
Идентификатор кодека : V_MPEG4/ISO/AVC
Продолжительность : 1 ч. 31 м.
Битрейт : 6485 Кбит/сек
Ширина : 1920 пикс.
Высота : 800 пикс.
Соотношение сторон : 2,40:1
Режим частоты кадров : Переменный
Частота кадров : 23,976 кадр/сек
Цветовое пространство : YUV
Подвыборка цветности : 4:2:0
Битовая глубина : 8 бит
Тип развёртки : Прогрессивная
Бит/(Пиксели*Кадры) : 0.176
Размер потока : 4,04 Гбайт (92%)
Заголовок : Бобер.[Element-Team.org]
Библиотека кодирования : x264 core 112 r1834 a51816a
Настройки программы : cabac=1 / ref=2 / deblock=1:0:0 / analyse=0x3:0x113 / me=hex / subme=6 / psy=1 / psy_rd=1.00:0.00 / mixed_ref=0 / me_range=16 / chroma_me=1 / trellis=0 / 8x8dct=1 / cqm=0 / deadzone=21,11 / fast_pskip=1 / chroma_qp_offset=-2 / threads=2 / sliced_threads=0 / nr=0 / decimate=1 / interlaced=0 / constrained_intra=0 / bframes=3 / b_pyramid=0 / b_adapt=1 / b_bias=0 / direct=3 / weightb=1 / open_gop=0 / weightp=2 / keyint=250 / keyint_min=25 / scenecut=40 / intra_refresh=0 / rc_lookahead=40 / rc=2pass / mbtree=1 / bitrate=6485 / ratetol=1.0 / qcomp=0.60 / qpmin=10 / qpmax=51 / qpstep=4 / cplxblur=20.0 / qblur=0.5 / ip_ratio=1.41 / aq=1:1.00
Язык : English

Аудио
Идентификатор : 2
Формат : AC-3
Формат/Информация : Audio Coding 3
Расширение режима : CM (complete main)
Идентификатор кодека : A_AC3
Продолжительность : 1 ч. 31 м.
Вид битрейта : Постоянный
Битрейт : 384 Кбит/сек
Каналы : 6 каналов
Расположение каналов : Front: L C R, Side: L R, LFE
Частота : 48,0 КГц
Битовая глубина : 16 бит
Метод сжатия : С потерями
Размер потока : 250 Мбайт (6%)
Заголовок : Дублированное [лицензия]
Язык : Russian
Свернуть

Скриншоты
Изображение
Изображение
Изображение
Изображение
Изображение
Свернуть

Изображение


Тема поднималась пользователем Shamman 2013-07-05 19:17.
Не в сети
Профиль  
Начать новую темуОтветить на тему  [ 1 сообщение ] 
Вы не можете начинать темы
Вы не можете отвечать на сообщения
Вы не можете редактировать свои сообщения
Вы не можете удалять свои сообщения