Правила форума

  • В этом разделе создание новых тем Запрещено.
  • Для создания новых тем пользуйтесь Корневым разделом DVD и HD фильмы.
Начать новую темуОтветить на тему  [ Сообщений: 2 ] 
Торрент файл
Размер: 7.06 GB • Зарегистрирован: 4 года 7 месяцев • Статус: Проверено
Скачан: 101 раз • Желающих скачать: 0 • Поблагодарили: 14 раз
 Раздают: 0  |  0 KB/s  ]   Качают: 0  |  0 KB/s  ] 
 Полного источника не было 2 года 3 месяца 
Сообщения
 Добавлено: 2012-04-20 16:27
Руководитель релиз-группы
Аватара пользователя
Стаж: 7 лет 4 месяца
Возраст: 31
Сообщений: 3407
Спасибок: 46728
Лайков: 5
Изображение

Боевой конь
War Horse


Год выпуска: 2011
Страна: США
Слоган: «В огне войны. В любящем сердце. Живет надежда.»
Жанр: драма, военный, история
Продолжительность: 02:26:39
Перевод: Профессиональный (полное дублирование)
Режиссер: Стивен Спилберг
Сценарий: Ли Холл, Ричард Кёртис, Майкл Морпурго
Продюсер: Кэтлин Кеннеди, Стивен Спилберг, Ревель Гест
Оператор: Януш Камински
Композитор: Джон Уильямс
В ролях: Джереми Ирвин, Том Хиддлстон, Питер Муллан, Дэвид Тьюлис, Эмили Уотсон, Нильс Ареструп, Бенедикт Камбербэтч, Селин Бакенс, Тоби Кеббелл, Патрик Кеннеди
Бюджет: $66 000 000
Сборы в мире: $177 059 441
Описание: История невероятной дружбы мальчика Альберта и коня Джоуи.
Когда начинается Первая мировая, и Джоуи отправляют вместе с кавалерийским полком на поля сражений Франции, Альберт, несмотря на слишком юный для военной службы возраст, все равно уходит на фронт, чтобы найти и спасти друга.
Изображение
MPAA: Изображение
Релиз: Изображение Раздача группы: Изображение
Качество: BDRip, 720p
Формат: Matroska
Видео: AVC; 1280x534 (2.35:1); 5342 Kbps; 23,976 fps; 0,326 bit/pixel
Аудио №1: AC3; 384 Kbps; CBR; 6 ch Russian
Аудио №2: AC3; 384 Kbps; CBR; 6 ch Ukrainian
Аудио №3: AC3; 640 Kbps; CBR; 6 ch English
Субтитры: русские (полные, форсированные), английские
Изображение
"Знаете ли Вы, что..."
  • Роман «Боевой конь» был впервые опубликован в 1982 году.
  • Роль Джои в течение фильма исполняли 14 лошадей. «Главный» конь, Файндер, также снимался в фильме «Фаворит» (2003 г.).
  • Известная своими документальными лентами большой любитель лошадей продюсер Ревель Гест загорелась идеей создания фильма по книге Майкла Морпурго ещё в конце 90-х. С 2006 по 2009 год она вместе с автором книги Майклом Морпурго и известным британским сценаристом Ли Холлом занималась разработкой возможного будущего фильма. Никаких реальных источников финансирования у них не было, и права на книгу официально никому не передавались.
  • В 2007 году роман Майкла Морпурго был адаптирован для сцены. Премьера пьесы по книге состоялась 17 октября 2007 года в Лондонском Королевском Национальном Театре. Пьеса шла там до 14 февраля 2008 года, а затем повторно вернулась в репертуар на период с 10 сентября 2008 года по 18 марта 2009 года. В апреле 2009 года пьеса переехала в Вест-Энд, в Новый Лондонский Театр, где её показы сопровождались практически полным аншлагом. За океаном на Бродвее пьеса дебютировала 14 апреля 2011 года.
  • Сыгравший в фильме Дэвида Лайонса Роберт Эммс играл главного героя Альберта Нарракотта в театральной постановке пьесы в Вест-Энде.
  • В поставленной по книге пьесе вместо живых лошадей использовались куклы в натуральную величину.
  • В декабре 2009 года права на книгу Майкла Морпурго были куплены американской студией DreamWorks Pictures. По поручению киностудии на работу по переработке сценария Ли Холла и Майкла Морпурго был приглашён Ричард Кёртис. Тот поначалу без энтузиазма воспринял предложение, но после встречи со Стивеном Спилбергом поменял своё решение и согласился взяться за дело.
  • На съёмочной площадке фильма непрерывно присутствовали представители Американского общества защиты животных. По окончании съёмок они удостоили фильм наивысшей оценки по части работы с животными.
  • В сцене, когда лошадь запутывается в колючей проволоке и пытается освободиться, была использована аниматронная модель.
  • Специальный техник занимался работой с подковами, которые регулярно отлетали с копыт посреди съёмочного процесса.
  • Максимальное количество лошадей, задействованных в одной сцене фильма – 280.
  • «Боевой конь» стал первым фильмом Стивена Спилберга, монтаж которого происходил с применением цифровых технологий, а не по старинке на плёнке.
  • В общей сложности в фильме было задействовано 5800 участников массовки. Многие военные сцены были сняты на заброшенном лётном поле возле деревушки Уисли, графство Сюррей. Там в процессе подготовки к съёмкам имелась возможность копать всевозможные траншеи и окопы без всяких ограничений. Начальный этап съёмок проходил на юге Англии в Дартмуре, где территория являлась природным заповедником. Там, напротив, категорически запрещались подобные действия и вообще любое воздействие на окружающую среду.
  • Несколько превью показов фильма было организовано в центральных штатах США в период с 1 по 10 ноября 2011 года. 16 ноября по случаю традиционного дня Памяти состоялись семь показов для ветеранов в Канаде.
  • На британской премьере фильма 8 января 2012 года присутствовал принц Уильям со своей супругой Кэтрин.
  • Посвященная работе над фильмом одноимённая иллюстрированная книга Стивена Спилберга вышла 27 декабря 2011 года в США и 1 января 2012 года в Великобритании.
Свернуть
mediainfo
Формат : Matroska
Версия формата : Version 2
Размер файла : 7,06 Гбайт
Продолжительность : 2 ч. 26 м.
Общий поток : 6887 Кбит/сек
Название фильма : War Horse (2011) - HQ-ViDEO
Дата кодирования : UTC 2012-04-19 13:24:42
Программа кодирования : mkvmerge v5.5.0 ('Healer') built on Apr 6 2012 21:43:24
Библиотека кодирования : libebml v1.2.3 + libmatroska v1.3.0

Видео
Идентификатор : 1
Формат : AVC
Формат/Информация : Advanced Video Codec
Профиль формата : High@L4.1
Параметр CABAC формата : Да
Параметр ReFrames формата : 12 кадров
Идентификатор кодека : V_MPEG4/ISO/AVC
Продолжительность : 2 ч. 26 м.
Битрейт : 5342 Кбит/сек
Ширина : 1280 пикселей
Высота : 534 пикселя
Соотношение сторон : 2,40:1
Частота кадров : 23,976 кадра/сек
Цветовое пространство : YUV
Субдискретизация насыщенности : 4:2:0
Битовая глубина : 8 бит
Тип развёртки : Прогрессивная
Бит/(Пиксели*Кадры) : 0.326
Размер потока : 5,47 Гбайт (78%)
Заголовок : Encode: EbP @ beckpaul23
Библиотека кодирования : x264 core 122 r2184 5c85e0a
Настройки программы : cabac=1 / ref=12 / deblock=1:-3:-3 / analyse=0x3:0x113 / me=tesa / subme=11 / psy=1 / psy_rd=1.00:0.00 / mixed_ref=1 / me_range=24 / chroma_me=1 / trellis=2 / 8x8dct=1 / cqm=0 / deadzone=21,11 / fast_pskip=0 / chroma_qp_offset=-2 / threads=6 / sliced_threads=0 / nr=0 / decimate=0 / interlaced=0 / bluray_compat=0 / constrained_intra=0 / bframes=7 / b_pyramid=2 / b_adapt=2 / b_bias=0 / direct=3 / weightb=1 / open_gop=0 / weightp=2 / keyint=250 / keyint_min=23 / scenecut=40 / intra_refresh=0 / rc_lookahead=60 / rc=crf / mbtree=0 / crf=16.0 / qcomp=0.60 / qpmin=0 / qpmax=69 / qpstep=4 / vbv_maxrate=40000 / vbv_bufsize=30000 / crf_max=0.0 / nal_hrd=none / ip_ratio=1.40 / pb_ratio=1.30 / aq=1:0.80
Язык : English
Основные цвета : BT.709-5, BT.1361, IEC 61966-2-4, SMPTE RP177
Характеристики трансфера : BT.709-5, BT.1361
Коэффициенты матрицы : BT.709-5, BT.1361, IEC 61966-2-4 709, SMPTE RP177

Аудио #1
Идентификатор : 2
Формат : AC-3
Формат/Информация : Audio Coding 3
Расширение режима : CM (complete main)
Идентификатор кодека : A_AC3
Продолжительность : 2 ч. 26 м.
Вид битрейта : Постоянный
Битрейт : 384 Кбит/сек
Каналы : 6 каналов
Расположение каналов : Front: L C R, Side: L R, LFE
Частота : 48,0 КГц
Битовая глубина : 16 бит
Метод сжатия : С потерями
Размер потока : 403 Мбайт (6%)
Заголовок : DUB @ R5
Язык : Russian

Аудио #2
Идентификатор : 3
Формат : AC-3
Формат/Информация : Audio Coding 3
Расширение режима : CM (complete main)
Идентификатор кодека : A_AC3
Продолжительность : 2 ч. 26 м.
Вид битрейта : Постоянный
Битрейт : 384 Кбит/сек
Каналы : 6 каналов
Расположение каналов : Front: L C R, Side: L R, LFE
Частота : 48,0 КГц
Битовая глубина : 16 бит
Метод сжатия : С потерями
Размер потока : 403 Мбайт (6%)
Заголовок : DUB @ R5
Язык : Ukrainian

Аудио #3
Идентификатор : 4
Формат : AC-3
Формат/Информация : Audio Coding 3
Расширение режима : CM (complete main)
Идентификатор кодека : A_AC3
Продолжительность : 2 ч. 26 м.
Вид битрейта : Постоянный
Битрейт : 640 Кбит/сек
Каналы : 6 каналов
Расположение каналов : Front: L C R, Side: L R, LFE
Частота : 48,0 КГц
Битовая глубина : 16 бит
Метод сжатия : С потерями
Размер потока : 671 Мбайт (9%)
Заголовок : Original
Язык : English

Текст #1
Идентификатор : 5
Формат : UTF-8
Идентификатор кодека : S_TEXT/UTF8
Идентификатор кодека/Информация : UTF-8 Plain Text
Заголовок : Forced
Язык : Russian

Текст #2
Идентификатор : 6
Формат : UTF-8
Идентификатор кодека : S_TEXT/UTF8
Идентификатор кодека/Информация : UTF-8 Plain Text
Заголовок : Full @ voronine
Язык : Russian

Текст #3
Идентификатор : 7
Формат : UTF-8
Идентификатор кодека : S_TEXT/UTF8
Идентификатор кодека/Информация : UTF-8 Plain Text
Заголовок : SDH @ voronine
Язык : Russian

Текст #4
Идентификатор : 8
Формат : UTF-8
Идентификатор кодека : S_TEXT/UTF8
Идентификатор кодека/Информация : UTF-8 Plain Text
Язык : English

Меню
00:00:00.000 : en:00:00:00.000
00:04:31.104 : en:00:04:31.104
00:09:31.321 : en:00:09:31.321
00:13:57.003 : en:00:13:57.003
00:17:45.231 : en:00:17:45.231
00:22:29.098 : en:00:22:29.098
00:29:16.963 : en:00:29:16.963
00:34:17.180 : en:00:34:17.180
00:37:49.934 : en:00:37:49.934
00:41:30.196 : en:00:41:30.196
00:47:19.003 : en:00:47:19.003
00:51:48.814 : en:00:51:48.814
00:56:03.151 : en:00:56:03.151
01:01:19.175 : en:01:01:19.175
01:04:04.048 : en:01:04:04.048
01:05:51.030 : en:01:05:51.030
01:14:04.565 : en:01:14:04.565
01:18:01.010 : en:01:18:01.010
01:25:34.379 : en:01:25:34.379
01:29:48.008 : en:01:29:48.008
01:35:29.682 : en:01:35:29.682
01:45:23.275 : en:01:45:23.275
01:51:06.660 : en:01:51:06.660
02:00:06.157 : en:02:00:06.157
02:07:38.276 : en:02:07:38.276
02:15:12.271 : en:02:15:12.271
02:18:10.949 : en:02:18:10.949

Свернуть
Скриншоты

Изображение
Изображение
Изображение
Изображение
Изображение
Свернуть
Не в сети
Профиль  
 Добавлено: 2013-02-02 18:47 (спустя 9 месяцев)
Стаж: 5 лет
Сообщений: 59
спасибо
Не в сети
Профиль  
Начать новую темуОтветить на тему  [ Сообщений: 2 ] 
Вы не можете начинать темы
Вы не можете отвечать на сообщения
Вы не можете редактировать свои сообщения
Вы не можете удалять свои сообщения