Правила форума

  • В этом разделе создание новых тем Запрещено.
  • Для создания новых тем пользуйтесь Корневым разделом DVD и HD фильмы.
Начать новую темуОтветить на тему  [ 1 сообщение ] 
Торрент файл
Размер: 4.36 GB • Зарегистрирован: 4 года 3 месяца • Статус: Проверено
Скачан: 49 раз • Желающих скачать: 0 • Поблагодарили: 11 раз
 Раздают: 0  |  0 KB/s  ]   Качают: 0  |  0 KB/s  ] 
 Полного источника не было 20 дней 
Сообщения
 Добавлено: 2012-08-24 12:51
Аватара пользователя
Стаж: 8 лет 1 месяц
Возраст: 27
Сообщений: 176
Спасибок: 968
Лайков: 1
Боже, благослови Америку! / God Bless America

Изображение


Год выпуска: 2011
Страна: США
Слоган: «Прирожденные убийцы американской мечты»
Жанр: драма, комедия, криминал
Продолжительность: 01:44:22
Перевод: Профессиональный (MVO R5) Лицензия

Режиссёр: Боб Голдтуэйт
Сценарист: Боб Голдтуэйт
Продюсер: Джефф Калотта, Шон МакКиттрик, Сара де Са Рего
Оператор: Брэдли Стонсифер
Композитор: Мэтт Коллар
В ролях: Джоэль Мюррей (Joel Murray), Тара Барр (Tara Lynne Barr), Маккензи Брук Смит (Mackenzie Brooke Smith), Мелинда Пейдж Хэмилтон (Melinda Page Hamilton), Рич МакДональд (Rich McDonald), Гьюррин Гарднер (Guerrin Gardner), Келли Рамдайни (Kellie Ramdhanie), Андреа Харпер (Andrea Harper), Дэвид Менденхолл (David Mendenhall), Джулиана Акоста (Juliana Acosta), Стив Эйджи (Steve Agee), Ирис Алмарио (Iris Almario), Арис Альварадо (Aris Alvarado), Карсон Он (Carson Aune), Эллен Бэйкер (Ellen Baker), Дорри Бартон (Dorie Barton), David Boat, Кирк Бовилл (Kirk Bovill), Клод Брагг (Claude Bragg), Ромео Браун (Romeo Brown)
Описание: Фрэнк просто выдохся: сосед-невежа, постоянный плач ребенка, глупая болтовня коллег, и в довершение всего — ещё и опухоль мозга. Достав пистолет, уставший от жизни герой находит для себя неожиданного друга и союзника по имени Рокси. Это девушка-студентка, проявляющая нетерпимость к идиотам вокруг и мыслящая в точности, как и Фрэнк. Он даёт ей уроки стрельбы, а она ему — цели, которые нужно поразить.
Рейтинг MPAA: Рейтинг R (Подростки до 17 лет допускаются на фильм только в сопровождении одного из родителей)
Мировая премьера: 9 сентября 2011
Премьера в России: 31 мая 2012, «Кино без границ»
Кассовые сборы: 177 332$
Изображение 7.363 (9 143)

Формат: .mkv
Качество: BDRip 1080p (рип с Blu-ray)
Видео: 1920x816 (2.35:1), 23.976 fps, AVC, 5 613 Kbps
Звук: AC3, 384 Kbps, 48.0 KHz, 2 ch
Субтитры: Russian (2v), english (srt)
Скриншоты
Изображение
Изображение
Изображение
Изображение
Изображение
Изображение
Свернуть
Знаете ли Вы, что...
Книга, которую Фрэнк дал почитать секретарю, называется «Гордость и предубеждение и зомби», автор Сет Грэм-Смит, основана на знаменитом романе Джейн Остин.
Свернуть
MI
Общее
Уникальный идентификатор : 222608965839565444356948642897407754713 (0xA778ED64D717C1C1A4C14267383FC1D9)
Полное имя : E:торрентBoje.Blagoslovi.Ameriku.2011.BDRip1080p-F.HD .mkv
Формат : Matroska
Версия формата : Version 2
Размер файла : 4,36 Гбайт
Продолжительность : 1 ч. 44 м.
Общий поток : 5986 Кбит/сек
Дата кодирования : UTC 2012-08-24 08:19:09
Программа кодирования : mkvmerge v5.4.0 ('Piper') built on Mar 10 2012 13:34:39
Библиотека кодирования : libebml v1.2.3 + libmatroska v1.3.0

Видео
Идентификатор : 1
Формат : AVC
Формат/Информация : Advanced Video Codec
Профиль формата : High@L4.1
Параметр CABAC формата : Да
Параметр ReFrames формата : 5 кадров
Идентификатор кодека : V_MPEG4/ISO/AVC
Продолжительность : 1 ч. 44 м.
Битрейт : 5613 Кбит/сек
Ширина : 1920 пикселей
Высота : 816 пикселей
Соотношение сторон : 2,35:1
Режим частоты кадров : Постоянный
Частота кадров : 23,976 кадра/сек
Цветовое пространство : YUV
Субдискретизация насыщенности : 4:2:0
Битовая глубина : 8 бит
Тип развёртки : Прогрессивная
Бит/(Пиксели*Кадры) : 0.149
Размер потока : 4,00 Гбайт (92%)
Библиотека кодирования : x264 core 125 r2200 999b753
Настройки программы : cabac=1 / ref=5 / deblock=1:-1:-1 / analyse=0x3:0x113 / me=umh / subme=10 / psy=1 / psy_rd=1.00:0.15 / mixed_ref=1 / me_range=48 / chroma_me=1 / trellis=2 / 8x8dct=1 / cqm=0 / deadzone=21,11 / fast_pskip=0 / chroma_qp_offset=-1 / threads=6 / lookahead_threads=1 / sliced_threads=0 / nr=0 / decimate=1 / interlaced=0 / bluray_compat=0 / constrained_intra=0 / bframes=7 / b_pyramid=2 / b_adapt=2 / b_bias=0 / direct=3 / weightb=1 / open_gop=0 / weightp=2 / keyint=240 / keyint_min=23 / scenecut=40 / intra_refresh=0 / rc=2pass / mbtree=0 / bitrate=5613 / ratetol=1.0 / qcomp=0.80 / qpmin=0 / qpmax=69 / qpstep=4 / cplxblur=20.0 / qblur=0.5 / ip_ratio=1.40 / pb_ratio=1.30 / aq=2:0.90
Язык : English
Default : Да
Forced : Нет
Основные цвета : BT.709
Характеристики трансфера : BT.709
Коэффициенты матрицы : BT.709

Аудио
Идентификатор : 2
Формат : AC-3
Формат/Информация : Audio Coding 3
Расширение режима : CM (complete main)
Параметр Endianness формата : Big
Идентификатор кодека : A_AC3
Продолжительность : 1 ч. 44 м.
Вид битрейта : Постоянный
Битрейт : 384 Кбит/сек
Каналы : 2 канала
Расположение каналов : Front: L R
Частота : 48,0 КГц
Битовая глубина : 16 бит
Метод сжатия : С потерями
Размер потока : 287 Мбайт (6%)
Язык : Russian
Default : Да
Forced : Нет

Текст #1
Идентификатор : 3
Формат : UTF-8
Идентификатор кодека : S_TEXT/UTF8
Идентификатор кодека/Информация : UTF-8 Plain Text
Язык : Russian
Default : Нет
Forced : Нет

Текст #2
Идентификатор : 4
Формат : UTF-8
Идентификатор кодека : S_TEXT/UTF8
Идентификатор кодека/Информация : UTF-8 Plain Text
Язык : Russian
Default : Нет
Forced : Нет

Текст #3
Идентификатор : 5
Формат : UTF-8
Идентификатор кодека : S_TEXT/UTF8
Идентификатор кодека/Информация : UTF-8 Plain Text
Язык : English
Default : Нет
Forced : Нет

Меню
00:00:00.000 : en:Chapter 01
00:06:34.936 : en:Chapter 02
00:18:07.419 : en:Chapter 03
00:27:42.619 : en:Chapter 04
00:37:28.120 : en:Chapter 05
00:45:35.023 : en:Chapter 06
00:53:57.067 : en:Chapter 07
01:11:50.431 : en:Chapter 08
01:18:16.566 : en:Chapter 09
01:28:09.617 : en:Chapter 10
01:31:49.921 : en:Chapter 11
01:39:28.671 : en:Chapter 12
01:44:22.047 : en:Chapter 13
Свернуть

Изображение

Изображение
Не в сети
Профиль  
Начать новую темуОтветить на тему  [ 1 сообщение ] 
Вы не можете начинать темы
Вы не можете отвечать на сообщения
Вы не можете редактировать свои сообщения
Вы не можете удалять свои сообщения