Правила форума

  • В этом разделе создание новых тем Запрещено.
  • Для создания новых тем пользуйтесь Корневым разделом DVD и HD фильмы.
Начать новую темуОтветить на тему  [ 1 сообщение ] 
Торрент файл
Размер: 17.6 GB • Зарегистрирован: 3 года 10 месяцев • Статус: Проверено
Скачан: 17 раз • Желающих скачать: 0 • Поблагодарили: 3 раза
 Раздают: 0  |  0 KB/s  ]   Качают: 0  |  0 KB/s  ] 
 Полного источника не было 3 года 2 месяца 
Сообщения
 Добавлено: 2013-01-21 13:44
Модератор релиз-группы
Аватара пользователя
Стаж: 9 лет 1 месяц
Возраст: 97
Сообщений: 11659
Спасибок: 6530
Лайков: 269
Боксер / The Philly Kid

Изображение


Год выпуска: 2012
Страна: США
Жанр: боевик, драма
Продолжительность: 01:29:47
Перевод: Профессиональный многоголосый
Профессиональный двухголосый

Режиссёр: Джейсон Коннери
В ролях: Уэс Чэтэм, Девон Сава, Сара Батлер, Нил МакДонаф, Лаки Джонсон
Описание: После 10-летнего тюремного заключения освобожден под честное слово борец-бывший чемпион Национальной Атлетической Ассоциации.
Теперь чтобы спасти жизнь другу он должен сделать невозможное для себя, проиграть в серии борцовских поединков в клетке.
Изображение
Качество : Blu-Ray Remux (1080p)
Видео: MPEG-4 AVC, 23.9 Мбит/с, 1920x1080
Аудио #1: Русский (AC3, 2 ch, 192 Кбит/с)
Аудио #2: Русский (AC3, 6 ch, 448 Кбит/с)
Аудио #3: aнглийский (DTS-HD МА, 6 ch, 2180 Кбит/с)
Cубтитры: английские
Mi
General
Unique ID : 186597775455579948286229474289672840915 (0x8C616CA0EE0AEF308F3768E53640E6D3)
Complete name : D:\Боксер.2012.Blu-Ray.Remux.(1080p).mkv
Format : Matroska
Format version : Version 2
File size : 17.6 GiB
Duration : 1h 34mn
Overall bit rate mode : Variable
Overall bit rate : 26.8 Mbps
Encoded date : UTC 2013-01-18 19:19:11
Writing application : mkvmerge v5.8.0 ('No Sleep / Pillow') built on Sep 2 2012 15:37:04
Writing library : libebml v1.2.3 + libmatroska v1.3.0

Video
ID : 1
Format : AVC
Format/Info : Advanced Video Codec
Format profile : High@L4.1
Format settings, CABAC : Yes
Format settings, ReFrames : 4 frames
Muxing mode : Container profile=Unknown@0.0
Codec ID : V_MPEG4/ISO/AVC
Duration : 1h 34mn
Bit rate mode : Variable
Maximum bit rate : 35.0 Mbps
Width : 1 920 pixels
Height : 1 080 pixels
Display aspect ratio : 16:9
Frame rate mode : Constant
Frame rate : 23.976 fps
Standard : NTSC
Color space : YUV
Chroma subsampling : 4:2:0
Bit depth : 8 bits
Scan type : Progressive
Default : Yes
Forced : No
Color primaries : BT.709
Transfer characteristics : BT.709
Matrix coefficients : BT.709

Audio #1
ID : 2
Format : AC-3
Format/Info : Audio Coding 3
Mode extension : CM (complete main)
Format settings, Endianness : Big
Codec ID : A_AC3
Duration : 1h 34mn
Bit rate mode : Constant
Bit rate : 192 Kbps
Channel(s) : 2 channels
Channel positions : Front: L R
Sampling rate : 48.0 KHz
Bit depth : 16 bits
Compression mode : Lossy
Stream size : 129 MiB (1%)
Title : DVO, R5
Language : Russian
Default : Yes
Forced : No

Audio #2
ID : 3
Format : AC-3
Format/Info : Audio Coding 3
Mode extension : CM (complete main)
Format settings, Endianness : Big
Codec ID : A_AC3
Duration : 1h 34mn
Bit rate mode : Constant
Bit rate : 448 Kbps
Channel(s) : 6 channels
Channel positions : Front: L C R, Side: L R, LFE
Sampling rate : 48.0 KHz
Bit depth : 16 bits
Compression mode : Lossy
Stream size : 301 MiB (2%)
Title : MVO
Language : Russian
Default : No
Forced : No

Audio #3
ID : 4
Format : DTS
Format/Info : Digital Theater Systems
Format profile : MA / Core
Mode : 16
Format settings, Endianness : Big
Codec ID : A_DTS
Duration : 1h 34mn
Bit rate mode : Variable
Bit rate : Unknown / 1 509 Kbps
Channel(s) : 6 channels
Channel positions : Front: L C R, Side: L R, LFE
Sampling rate : 48.0 KHz
Bit depth : 16 bits
Compression mode : Lossless / Lossy
Language : English
Default : No
Forced : No

Text
ID : 5
Format : UTF-8
Codec ID : S_TEXT/UTF8
Codec ID/Info : UTF-8 Plain Text
Language : English
Default : No
Forced : No

Menu
00:00:00.000 : :Chapter 01
00:04:17.507 : :Chapter 02
00:08:09.739 : :Chapter 03
00:16:05.422 : :Chapter 04
00:19:46.226 : :Chapter 05
00:25:32.697 : :Chapter 06
00:33:35.471 : :Chapter 07
00:40:43.524 : :Chapter 08
00:45:19.758 : :Chapter 09
00:55:55.560 : :Chapter 10
01:01:46.202 : :Chapter 11
01:07:37.511 : :Chapter 12
01:12:53.827 : :Chapter 13
01:18:11.478 : :Chapter 14
01:22:45.752 : :Chapter 15
01:28:02.026 : :Chapter 16


Свернуть

Скриншоты
Изображение

Изображение

Изображение


Свернуть
_________________
Изображение
Не в сети
Профиль  
Начать новую темуОтветить на тему  [ 1 сообщение ] 
Вы не можете начинать темы
Вы не можете отвечать на сообщения
Вы не можете редактировать свои сообщения
Вы не можете удалять свои сообщения