Правила форума

  • В этом разделе создание новых тем Запрещено.
  • Для создания новых тем пользуйтесь Корневым разделом DVD и HD фильмы.
Начать новую темуОтветить на тему  [ Сообщений: 5 ] 
Торрент файл
Размер: 10.38 GB • Зарегистрирован: 5 лет 5 месяцев • Статус: Проверено
Скачан: 313 раз • Желающих скачать: 0 • Поблагодарили: 45 раз
 Раздают: 0  |  0 KB/s  ]   Качают: 0  |  0 KB/s  ] 
 Полного источника не было 10 месяцев 
Сообщения
 Добавлено: 2011-06-19 17:04
Модератор
Аватара пользователя
Стаж: 8 лет 1 месяц
Возраст: 20
Сообщений: 32130
Спасибок: 98564
Лайков: 80
Изображение

Больше чем секс / No Strings Attached


Год выпуска: 2011
Страна: США
Слоган: «Сможет ли бабник влюбиться в красотку?»

Жанр: мелодрама, комедия
Продолжительность: 01:47:58
Озвучивание: Дублированное [лицензия]

Режиссер: Айвен Райтман
В ролях: Натали Портман, Эштон Катчер, Кевин Клайн, Кэри Элвис, Грета Гервиг, Лэйк Белл, Оливия Тирлби, Лудакрис, Джэйк М. Джонсон, Мелинда Калинг

Бюджет: $25 000 000
Сборы в США: $70 662 220
Сборы в России: $6 607 303
Сборы в мире: $147 796 399

Мировая премьера: 11 января 2011
Релиз на DVD: 15 июня 2011, «Юниверсал Пикчерс Рус»
Релиз на Blu-ray: 15 июня 2011, «Юниверсал Пикчерс Рус»
Описание: Романтическая комедия о том, как легко мужчины и женщины вступают в сексуальную связь, но как трудно им достичь эмоциональной близости. Главных героев связывают только сексуальные отношения, но со временем они понимают, что на смену физиологическим инстинктам приходит нечто большее.
Изображение
MPAA: Изображение - Лицам до 17 лет обязательно присутствие взрослого
Качество: BDRip 1080p R5
Формат: Matroska

Видео: (AVC)11.8 mb/s, 1920x800, 23.976 fps
Аудио: Russian: AC3, 448 kb/s (6 ch) / English: DTS, 1510 kb/s (6 ch)
Субтитры: Russian, English
Изображение
Релиз группы: Изображение
MediaInfo
General
Complete name : No.Strings.Attached.2011.D.BDRip.1080p.[uniongang].mkv
Format : Matroska
File size : 10.4 GiB
Duration : 1h 47mn
Overall bit rate : 13.8 Mbps
Movie name : uniongang.tv
Encoded date : UTC 2011-06-19 08:24:04
Writing application : mkvmerge v3.4.0 ('Rapunzel') сборка от May 15 2010 09:38:20
Writing library : libebml v0.8.0 + libmatroska v0.9.0

Video
ID : 1
Format : AVC
Format/Info : Advanced Video Codec
Format profile : High@L4.1
Format settings, CABAC : Yes
Format settings, ReFrames : 5 frames
Format settings, GOP : M=4, N=16
Codec ID : V_MPEG4/ISO/AVC
Duration : 1h 47mn
Bit rate : 11.8 Mbps
Width : 1 920 pixels
Height : 800 pixels
Display aspect ratio : 2.40:1
Frame rate : 23.976 fps
Color space : YUV
Chroma subsampling : 4:2:0
Bit depth : 8 bits
Scan type : Progressive
Bits/(Pixel*Frame) : 0.320
Stream size : 8.69 GiB (84%)
Title : No.Strings.Attached.2011.BluRay.1080p.DTS.x264-CHD
Writing library : x264 core 114 r1924 08d04a4
Encoding settings : cabac=1 / ref=5 / deblock=1:-3:-3 / analyse=0x3:0x113 / me=umh / subme=10 / psy=1 / psy_rd=1.05:0.10 / mixed_ref=1 / me_range=48 / chroma_me=1 / trellis=2 / 8x8dct=1 / cqm=2 / deadzone=21,11 / fast_pskip=0 / chroma_qp_offset=-2 / threads=12 / sliced_threads=0 / nr=0 / decimate=1 / interlaced=0 / constrained_intra=0 / bframes=6 / b_pyramid=2 / b_adapt=2 / b_bias=0 / direct=3 / weightb=1 / open_gop=0 / weightp=2 / keyint=250 / keyint_min=23 / scenecut=40 / intra_refresh=0 / rc_lookahead=50 / rc=2pass / mbtree=1 / bitrate=11800 / ratetol=1.0 / qcomp=0.70 / qpmin=1 / qpmax=63 / qpstep=4 / cplxblur=20.0 / qblur=0.5 / vbv_maxrate=40000 / vbv_bufsize=40000 / nal_hrd=none / ip_ratio=1.40 / aq=2:0.70
Language : English

Audio #1
ID : 2
Format : AC-3
Format/Info : Audio Coding 3
Mode extension : CM (complete main)
Codec ID : A_AC3
Duration : 1h 47mn
Bit rate mode : Constant
Bit rate : 448 Kbps
Channel(s) : 6 channels
Channel positions : Front: L C R, Side: L R, LFE
Sampling rate : 48.0 KHz
Bit depth : 16 bits
Stream size : 346 MiB (3%)
Title : R5
Language : Russian

Audio #2
ID : 3
Format : DTS
Format/Info : Digital Theater Systems
Codec ID : A_DTS
Duration : 1h 47mn
Bit rate mode : Constant
Bit rate : 1 510 Kbps
Channel(s) : 6 channels
Channel positions : Front: L C R, Side: L R, LFE
Sampling rate : 48.0 KHz
Bit depth : 24 bits
Stream size : 1.14 GiB (11%)
Title : Original
Language : English

Text #1
ID : 4
Format : UTF-8
Codec ID : S_TEXT/UTF8
Codec ID/Info : UTF-8 Plain Text
Title : Russian
Language : Russian

Text #2
ID : 5
Format : UTF-8
Codec ID : S_TEXT/UTF8
Codec ID/Info : UTF-8 Plain Text
Title : English
Language : English
Свернуть
Скриншоты
Изображение

Изображение

Изображение
Свернуть
Не в сети
Профиль  
 Добавлено: 2011-06-20 16:27 (спустя 23 часа)
Аватара пользователя
Стаж: 8 лет 1 месяц
Возраст: 32
Сообщений: 496
Спасибок: 737
Кошмарный фильм. С сожалению в Голливуде сейчас такой же застой, как у нас был в девяностых. Сценарии никакие. Даже хороший актер - не является залогом успеха фильма.
Не в сети
Профиль  
 Добавлено: 2011-06-20 20:47 (спустя 4 часа)
Кинокомментатор
Аватара пользователя
Стаж: 9 лет
Сообщений: 1331
Лайков: 52
а мне кино понравилось:) как бы так сказать... ну очень похоже на то что сейчас у меня) прям весь фильм меня это ощщущение не покидало:)
Катчер хорош!) опять же мне напомнил меня))) угар))) ну или мб я с него уже давненько рисую) хз)
Портман,... ммм!) она лучшая!) она везде и всё лучше и лучше!) такую хочу!) заверните!) ну заверните пжлста!)
много секса) много милого юмора) много красивого) и я смотрел не отлипая!) что тут ещё скажешь? надо смотреть) и понимать, что даже имея лишь секс привычка берёт своё:) ну или любовь) кому как повезёт:)
_________________
Я ВКонтакте
Не в сети
Профиль  
 Добавлено: 2011-06-25 18:59 (спустя 4 дня)
Стаж: 7 лет 5 месяцев
Сообщений: 2
Классный фильм!мне понравился :)
Не в сети
Профиль  
 Добавлено: 2011-07-02 17:17 (спустя 6 дней)
Аватара пользователя
Стаж: 7 лет 10 месяцев
Сообщений: 31

Bronks:

а мне кино понравилось:) как бы так сказать... ну очень похоже на то что сейчас у меня) прям весь фильм меня это ощщущение не покидало:)
Катчер хорош!) опять же мне напомнил меня))) угар))) ну или мб я с него уже давненько рисую) хз)
Портман,... ммм!) она лучшая!) она везде и всё лучше и лучше!) такую хочу!) заверните!) ну заверните пжлста!)
много секса) много милого юмора) много красивого) и я смотрел не отлипая!) что тут ещё скажешь? надо смотреть) и понимать, что даже имея лишь секс привычка берёт своё:) ну или любовь) кому как повезёт:)



М.ля походу тебе никто не дает! И не даст! .....Прорвало :-D
Не в сети
Профиль  
Начать новую темуОтветить на тему  [ Сообщений: 5 ] 
Вы не можете начинать темы
Вы не можете отвечать на сообщения
Вы не можете редактировать свои сообщения
Вы не можете удалять свои сообщения