Правила форума

  • В этом разделе создание новых тем Запрещено.
  • Для создания новых тем пользуйтесь Корневым разделом DVD и HD фильмы.
Начать новую темуОтветить на тему  [ 1 сообщение ] 
Торрент файл
Размер: 4.67 GB • Зарегистрирован: 5 лет 7 месяцев • Статус: Проверено
Скачан: 41 раз • Желающих скачать: 0 • Поблагодарили: 9 раз
 Раздают: 0  |  0 KB/s  ]   Качают: 0  |  0 KB/s  ] 
 Полного источника не было 3 года 3 месяца 
Сообщения
 Добавлено: 2011-04-29 14:21
Аватара пользователя
Стаж: 8 лет 3 месяца
Возраст: 33
Сообщений: 613
Спасибок: 529
Лайков: 1
Большие мамочки: Сын как отец
Big Mommas: Like Father, Like Son



Изображение

Год выпуска: 2011
Страна: США (Collective, The, Friendly Films (II), Friendly Films Productions)
Слоган: «Momma's got back-up.»
Жанр: комедия
Продолжительность: 01:52:57
Перевод: Профессиональный (дубляж) + Оригинальная звуковая дорожка
Субтитры: Нет


Режиссёр: Джон Уайтселл

В ролях: Мартин Лоуренс, Брэндон Т. Джексон, Джессика Лукас, Мишель Энг, Портия Даблдэй, Эмили Риос, Ана Ортиз, Генри Любатти, Лоренцо Пизони, Тони Карран


Описание:

На сей раз к Тернеру присоединяется его пасынок Трент, когда они отправляются «под прикрытием» в женскую школу исполнительных видов искусства после того, как Трент становится свидетелем убийства. Представ в виде Большой Мамочки и крупной студентки Шарман, они должны найти убийцу раньше, чем он найдет их.


Примечание: EXTENDED-версия длиннее театральной на 5 минут. Имеются места без перевода.


Качество: BDRip, 720p
Формат: MKV
Видео кодек: H264 (AVC)
Аудио кодек: AC3 (Dolby Digital)
Видео: MPEG4 Video (H264) 1280x534 23.98fps
Аудио #1: Изображение Dolby AC3 48000Hz 6ch |Дубляж, R5|
Аудио #2: Изображение DTS, 1536 kb/s (6 ch)
Субтитры: Нет

Скриншоты
Изображение

Изображение

Изображение

Изображение

Изображение
Свернуть
МедиаИнфо
General
Complete name : I:\торренты\Bolshie.mamochki.3.EXTENED.2011.D.BDRip.720p.mkv
Format : Matroska
File size : 4.67 GiB
Duration : 1h 52mn
Overall bit rate : 5 912 Kbps
Encoded date : UTC 2011-04-28 20:58:01
Writing application : mkvmerge v3.4.0 ('Rapunzel') built on May 15 2010 09:38:20
Writing library : libebml v0.8.0 + libmatroska v0.9.0

Video
ID : 1
Format : AVC
Format/Info : Advanced Video Codec
Format profile : High@L4.1
Format settings, CABAC : Yes
Format settings, ReFrames : 8 frames
Muxing mode : Container profile=Unknown@4.1
Codec ID : V_MPEG4/ISO/AVC
Duration : 1h 52mn
Bit rate : 3 901 Kbps
Nominal bit rate : 4 019 Kbps
Width : 1 280 pixels
Height : 534 pixels
Display aspect ratio : 2.35:1
Frame rate : 23.976 fps
Resolution : 24 bits
Colorimetry : 4:2:0
Scan type : Progressive
Bits/(Pixel*Frame) : 0.238
Stream size : 3.08 GiB (66%)
Writing library : x264 core 114 r1924 08d04a4
Encoding settings : cabac=1 / ref=8 / deblock=1:-2:-2 / analyse=0x3:0x133 / me=umh / subme=9 / psy=1 / psy_rd=1.20:0.20 / mixed_ref=1 / me_range=16 / chroma_me=1 / trellis=2 / 8x8dct=1 / cqm=0 / deadzone=21,11 / fast_pskip=1 / chroma_qp_offset=-3 / threads=12 / sliced_threads=0 / nr=0 / decimate=0 / interlaced=0 / constrained_intra=0 / bframes=3 / b_pyramid=2 / b_adapt=2 / b_bias=0 / direct=3 / weightb=1 / open_gop=0 / weightp=2 / keyint=250 / keyint_min=2 / scenecut=40 / intra_refresh=0 / rc_lookahead=60 / rc=2pass / mbtree=1 / bitrate=4019 / ratetol=1.0 / qcomp=0.60 / qpmin=10 / qpmax=51 / qpstep=4 / cplxblur=20.0 / qblur=0.5 / vbv_maxrate=38000 / vbv_bufsize=38000 / nal_hrd=none / ip_ratio=1.40 / aq=1:1.00
Language : English

Audio #1
ID : 2
Format : AC-3
Format/Info : Audio Coding 3
Codec ID : A_AC3
Duration : 1h 52mn
Bit rate mode : Constant
Bit rate : 384 Kbps
Channel(s) : 6 channels
Channel positions : Front: L C R, Surround: L R, LFE
Sampling rate : 48.0 KHz
Stream size : 310 MiB (6%)
Title : Russian @ DD 5.1 @ 384 kbps
Language : Russian

Audio #2
ID : 3
Format : DTS
Format/Info : Digital Theater Systems
Codec ID : A_DTS
Duration : 1h 52mn
Bit rate mode : Constant
Bit rate : 1 510 Kbps
Channel(s) : 6 channels
Channel positions : Front: L C R, Surround: L R, LFE
Sampling rate : 48.0 KHz
Resolution : 24 bits
Stream size : 1.19 GiB (26%)
Title : English @ DTS 5.1 @ 1510 kbps
Language : English

Свернуть
Не в сети
Профиль  
Начать новую темуОтветить на тему  [ 1 сообщение ] 
Вы не можете начинать темы
Вы не можете отвечать на сообщения
Вы не можете редактировать свои сообщения
Вы не можете удалять свои сообщения