Правила форума

  • В этом разделе создание новых тем Запрещено.
  • Для создания новых тем пользуйтесь Корневым разделом DVD и HD фильмы.
Начать новую темуОтветить на тему  [ 1 сообщение ] 
Торрент файл
Размер: 13.55 GB • Зарегистрирован: 4 года 2 месяца • Статус: Проверено
Скачан: 29 раз • Желающих скачать: 0 • Поблагодарили: 6 раз
 Раздают: 0  |  0 KB/s  ]   Качают: 0  |  0 KB/s  ] 
 Полного источника не было 2 года 10 месяцев 
Сообщения
 Добавлено: 2012-09-09 19:47
Инквизитор
Аватара пользователя
Стаж: 8 лет 8 месяцев
Сообщений: 3753
Спасибок: 28360
Лайков: 9
Изображение

Большой год
The Big Year


Год выпуска: 2011
Страна: США
Жанр: драма, комедия, приключения
Перевод: Оригинальный, Профессиональный (многоголосый, закадровый)
Режиссер: Дэвид Фрэнкел
Сценарий: Ховард Франклин, Марк Обмашик
Продюсер: Стюарт Корнфелд, Кёртис Хэнсон, Карен Розенфельт, Кэрол Фенелон, Джеффри Харлэкер
Оператор: Лоуренс Шер
Композитор: Теодор Шапиро
В ролях: Стив Мартин, Джек Блэк, Оуэн Уилсон, Заф Пару, Джон Клиз, Розамунд Пайк, Кевин Поллак, Джоэль МакХэйл, ДжоБет Уильямс, Пол Кэмпбелл, Синди Басби, Грег Кин
Бюджет: $41 000 000
Сборы в США: $7 204 138
Сборы в мире: $7 448 385
Мировая премьера: 14 октября 2011
Релиз на DVD: 6 сентября 2012, «Двадцатый Век Фокс СНГ»
Описание: Комедия о конкуренции в наблюдении за птицами - три участника соревнования пытаются раньше других увидеть редчайшую птичку Северной Америки, а их соперничество олицетворяет вызовы, которые бросает им судьба в повседневной жизни.

Изображение User Rating: 6.683 (1 618)
Изображение User Rating: 6.10 (15 068)
MPAA: PG - Рекомендуется присутствие родителей
Релиз: Изображение Раздача группы: Изображение
Качество: BDRip, 1080p
Формат: Matroska
Видео: AVC; 23,976 fps
Аудио №1: Russian; AC3; 6 ch
Аудио №2: DTS; 6 ch

Субтитры №1: Russian
Субтитры №2: English

mediainfo
Общее
Уникальный идентификатор                 : 181867832529719125943539239272611790027 (0x88D2786FFFE884F3B8B52C66D1733CCB)
Полное имя                               : K:\Фильмы\The.Big.Year.2011.1080р.BluRay.Rus.Eng.HDCLUB-xmad.mkv
Формат                                   : Matroska
Версия формата                           : Version 2
Размер файла                             : 13,5 Гбайт
Продолжительность                        : 1 ч. 40 м.
Общий поток                              : 19,4 Мбит/сек
Название фильма                          : The Big Year (2011) - Release for HDCLUB
Дата кодирования                         : UTC 2012-09-09 08:20:54
Программа кодирования                    : mkvmerge v5.6.0 ('Kenya Kane') built on May 27 2012 16:44:04
Библиотека кодирования                   : libebml v1.2.3 + libmatroska v1.3.0

Видео
Идентификатор                            : 1
Формат                                   : AVC
Формат/Информация                        : Advanced Video Codec
Профиль формата                          : High@L4.1
Параметр CABAC формата                   : Да
Параметр ReFrames формата                : 5 кадров
Идентификатор кодека                     : V_MPEG4/ISO/AVC
Продолжительность                        : 1 ч. 40 м.
Битрейт                                  : 17,1 Мбит/сек
Ширина                                   : 1920 пикселей
Высота                                   : 816 пикселей
Соотношение сторон                       : 2,35:1
Частота кадров                           : 23,976 кадра/сек
Цветовое пространство                    : YUV
Субдискретизация насыщенности            : 4:2:0
Битовая глубина                          : 8 бит
Тип развёртки                            : Прогрессивная
Бит/(Пиксели*Кадры)                      : 0.455
Размер потока                            : 12,0 Гбайт (88%)
Заголовок                                : Release for HDCLUB
Библиотека кодирования                   : x264 core 125 r2200 999b753
Настройки программы                      : cabac=1 / ref=5 / deblock=1:-3:-3 / analyse=0x3:0x133 / me=tesa / subme=11 / psy=1 / psy_rd=1.10:0.02 / mixed_ref=1 / me_range=24 / chroma_me=1 / trellis=2 / 8x8dct=1 / cqm=0 / deadzone=21,11 / fast_pskip=0 / chroma_qp_offset=-3 / threads=12 / lookahead_threads=2 / sliced_threads=0 / nr=0 / decimate=1 / interlaced=0 / bluray_compat=0 / constrained_intra=0 / bframes=12 / b_pyramid=2 / b_adapt=2 / b_bias=0 / direct=3 / weightb=1 / open_gop=0 / weightp=2 / keyint=240 / keyint_min=24 / scenecut=40 / intra_refresh=0 / rc=crf / mbtree=0 / crf=18.0 / qcomp=0.60 / qpmin=0 / qpmax=69 / qpstep=4 / ip_ratio=1.40 / pb_ratio=1.30 / aq=1:0.80
Язык                                     : English
Default                                  : Да
Forced                                   : Нет

Аудио #1
Идентификатор                            : 2
Формат                                   : AC-3
Формат/Информация                        : Audio Coding 3
Расширение режима                        : CM (complete main)
Идентификатор кодека                     : A_AC3
Продолжительность                        : 1 ч. 40 м.
Вид битрейта                             : Постоянный
Битрейт                                  : 384 Кбит/сек
Каналы                                   : 6 каналов
Расположение каналов                     : Front: L C R, Side: L R, LFE
Частота                                  : 48,0 КГц
Битовая глубина                          : 16 бит
Метод сжатия                             : С потерями
Размер потока                            : 275 Мбайт (2%)
Заголовок                                : (AC3 5.1 @ 384 kbps - Многоголосый закадровый, R5 )
Язык                                     : Russian
Default                                  : Да
Forced                                   : Нет

Аудио #2
Идентификатор                            : 3
Формат                                   : DTS
Формат/Информация                        : Digital Theater Systems
Идентификатор кодека                     : A_DTS
Продолжительность                        : 1 ч. 40 м.
Вид битрейта                             : Постоянный
Битрейт                                  : 1510 Кбит/сек
Каналы                                   : 6 каналов
Расположение каналов                     : Front: L C R, Side: L R, LFE
Частота                                  : 48,0 КГц
Битовая глубина                          : 24 бит
Метод сжатия                             : С потерями
Размер потока                            : 1,06 Гбайт (8%)
Заголовок                                : (DTS 5.1 @ 1510 kbps -Original)
Язык                                     : English
Default                                  : Нет
Forced                                   : Нет

Текст #1
Идентификатор                            : 4
Формат                                   : UTF-8
Идентификатор кодека                     : S_TEXT/UTF8
Идентификатор кодека/Информация          : UTF-8 Plain Text
Заголовок                                : SRT
Язык                                     : Russian
Default                                  : Нет
Forced                                   : Нет

Текст #2
Идентификатор                            : 5
Формат                                   : UTF-8
Идентификатор кодека                     : S_TEXT/UTF8
Идентификатор кодека/Информация          : UTF-8 Plain Text
Заголовок                                : SRT
Язык                                     : English
Default                                  : Нет
Forced                                   : Нет

Меню
00:00:00.000                             : :Chapter 01
00:03:40.135                             : :Chapter 02
00:06:01.400                             : :Chapter 03
00:10:41.182                             : :Chapter 04
00:13:42.320                             : :Chapter 05
00:19:57.028                             : :Chapter 06
00:21:44.344                             : :Chapter 07
00:26:30.462                             : :Chapter 08
00:29:32.854                             : :Chapter 09
00:32:11.304                             : :Chapter 10
00:35:47.186                             : :Chapter 11
00:38:17.585                             : :Chapter 12
00:41:56.429                             : :Chapter 13
00:44:16.695                             : :Chapter 14
00:49:12.824                             : :Chapter 15
00:50:33.405                             : :Chapter 16
00:54:01.570                             : :Chapter 17
00:57:27.610                             : :Chapter 18
00:59:24.018                             : :Chapter 19
01:04:32.659                             : :Chapter 20
01:06:20.059                             : :Chapter 21
01:08:30.439                             : :Chapter 22
01:10:23.510                             : :Chapter 23
01:13:53.970                             : :Chapter 24
01:16:54.192                             : :Chapter 25
01:20:27.363                             : :Chapter 26
01:24:11.503                             : :Chapter 27
01:26:15.086                             : :Chapter 28
01:28:44.024                             : :Chapter 29
01:31:34.029                             : :Chapter 30
01:33:06.454                             : :Chapter 31
01:34:37.628                             : :Chapter 32
01:40:02.496                             : :Chapter 33
Свернуть
"Знаете ли Вы, что..."
  • Интересно, что Джим Парсонс сыграл в фильме роль исследователя-орнитолога, в то время как его персонаж в сериале «Теория большого взрыва» Шелдон Купер страдает орнитофобией - панической боязнью птиц.
Свернуть
Скриншоты

Изображение
Изображение
Изображение
Изображение
Свернуть

Изображение
Не в сети
Профиль  
Начать новую темуОтветить на тему  [ 1 сообщение ] 
Вы не можете начинать темы
Вы не можете отвечать на сообщения
Вы не можете редактировать свои сообщения
Вы не можете удалять свои сообщения