Правила форума

  • В этом разделе создание новых тем Запрещено.
  • Для создания новых тем пользуйтесь Корневым разделом DVD и HD фильмы.
Начать новую темуОтветить на тему  [ 1 сообщение ] 
Торрент файл
Размер: 9.65 GB • Зарегистрирован: 2 года 11 месяцев • Статус: Проверено
Скачан: 31 раз • Желающих скачать: 0 • Поблагодарили: 20 раз
 Раздают: 0  |  0 KB/s  ]   Качают: 0  |  0 KB/s  ] 
 Полного источника не было 17 часов 
Сообщения
 Добавлено: 2014-01-02 07:38
DVD Release Group
Аватара пользователя
Стаж: 7 лет 1 месяц
Сообщений: 3559
Спасибок: 247461
Лайков: 1020
Бойфренд из будущего

About Time


Изображение


Год выпуска: 2013
Страна: Великобритания
Жанр: Фантастика, драма, комедия
Продолжительность: 02:03:22
Перевод: Профессиональный (полное дублирование)
Cубтитры: Нет
Режиссер: Ричард Кёртис
В ролях: Домналл Глисон, Рэйчел МакАдамс, Билл Найи, Том Холландер, Марго Робби, Нив Гачев, Ванесса Кирби, Линдсэй Дункан, Лиза Айкхорн, Катрин Стэдмен
Описание: Тиму повезло — он молодой, симпатичный, многообещающий адвокат, а еще он… умеет перемещаться во времени. И чтобы очаровать девушку своей мечты, он готов повторять первое свидание вновь и вновь. Воистину, любовь с первого взгляда не всегда выходит с первого раза…
Изображение
Качество: BDRip 720p
Формат: MKV
Видео кодек: H.264
Аудио кодек: DTS
Видео: 1280x536 23.98fps 8711kbps
Аудио:
Аудио Rus: 48kHz 6ch 755kbps
Аудио Eng: 48kHz 6ch 1510kbps
"MediaInfo"
Формат : Matroska
Версия формата : Version 2
Размер файла : 9,65 Гбайт
Продолжительность : 2 ч. 3 м.
Общий поток : 11,2 Мбит/сек
Дата кодирования : UTC 2014-01-01 16:04:16
Программа кодирования : mkvmerge v5.8.0 ('No Sleep / Pillow') built on Sep 2 2012 15:37:04
Библиотека кодирования : libebml v1.2.3 + libmatroska v1.3.0

Видео
Идентификатор : 1
Формат : AVC
Формат/Информация : Advanced Video Codec
Профиль формата : High@L4.1
Параметр CABAC формата : Да
Параметр ReFrames формата : 2 кадра
Идентификатор кодека : V_MPEG4/ISO/AVC
Продолжительность : 2 ч. 3 м.
Битрейт : 8711 Кбит/сек
Ширина : 1280 пикселей
Высота : 536 пикселей
Соотношение сторон : 2,40:1
Частота кадров : 23,976 кадра/сек
Цветовое пространство : YUV
Субдискретизация насыщенности : 4:2:0
Битовая глубина : 8 бит
Тип развёртки : Прогрессивная
Бит/(Пиксели*Кадры) : 0.530
Размер потока : 7,51 Гбайт (78%)
Библиотека кодирования : x264 core 140 r2377+40 929f149 tMod [8-bit@all X86_64]
Настройки программы : cabac=1 / ref=1 / deblock=1:0:0 / analyse=0x3:0x133 / me=hex / subme=1 / psy=1 / fade_compensate=0.00 / psy_rd=1.00:0.00 / mixed_ref=0 / me_range=16 / chroma_me=1 / trellis=2 / 8x8dct=1 / cqm=0 / deadzone=21,11 / fast_pskip=0 / chroma_qp_offset=0 / threads=12 / lookahead_threads=4 / sliced_threads=0 / nr=0 / decimate=1 / interlaced=0 / bluray_compat=0 / constrained_intra=0 / fgo=0 / bframes=1 / b_pyramid=0 / b_adapt=2 / b_bias=0 / direct=1 / weightb=1 / open_gop=0 / weightp=2 / keyint=240 / keyint_min=23 / scenecut=40 / intra_refresh=0 / rc=crf / mbtree=0 / crf=16.5000 / qcomp=0.60 / qpmin=0:0:0 / qpmax=69:69:69 / qpstep=4 / ip_ratio=1.40 / pb_ratio=1.30 / aq=1:0.80 / aq-sensitivity=10.00 / aq-factor=1.00:1.00:1.00 / aq2=0 / aq3=0
Язык : English
Default : Да
Forced : Нет

Аудио #1
Идентификатор : 2
Формат : DTS
Формат/Информация : Digital Theater Systems
Идентификатор кодека : A_DTS
Продолжительность : 2 ч. 3 м.
Вид битрейта : Постоянный
Битрейт : 755 Кбит/сек
Каналы : 6 каналов
Расположение каналов : Front: L C R, Side: L R, LFE
Частота : 48,0 КГц
Битовая глубина : 24 бит
Метод сжатия : С потерями
Размер потока : 666 Мбайт (7%)
Язык : Russian
Default : Да
Forced : Нет

Аудио #2
Идентификатор : 3
Формат : DTS
Формат/Информация : Digital Theater Systems
Идентификатор кодека : A_DTS
Продолжительность : 2 ч. 3 м.
Вид битрейта : Постоянный
Битрейт : 1510 Кбит/сек
Каналы : 6 каналов
Расположение каналов : Front: L C R, Side: L R, LFE
Частота : 48,0 КГц
Битовая глубина : 24 бит
Метод сжатия : С потерями
Размер потока : 1,30 Гбайт (13%)
Язык : English
Default : Нет
Forced : Нет
Свернуть

"Скриншоты"
Изображение
Изображение
Изображение
Изображение
Изображение
Изображение
Изображение
Изображение
Свернуть

Раздача группы:
Изображение
В сети
Профиль  
Начать новую темуОтветить на тему  [ 1 сообщение ] 
Вы не можете начинать темы
Вы не можете отвечать на сообщения
Вы не можете редактировать свои сообщения
Вы не можете удалять свои сообщения