Правила форума

  • В этом разделе создание новых тем Запрещено.
  • Для создания новых тем пользуйтесь Корневым разделом DVD и HD фильмы.
Начать новую темуОтветить на тему  [ 1 сообщение ] 
Торрент файл
Размер: 8.11 GB • Зарегистрирован: 5 лет 8 месяцев • Статус: Проверено
Скачан: 67 раз • Желающих скачать: 0 • Поблагодарили: 12 раз
 Раздают: 0  |  0 KB/s  ]   Качают: 0  |  0 KB/s  ] 
 Полного источника не было 7 дней 
Сообщения
 Добавлено: 2011-03-20 13:03
Инквизитор
Аватара пользователя
Стаж: 8 лет 8 месяцев
Сообщений: 3753
Спасибок: 28359
Лайков: 9
Изображение

Бойлерная / Boiler Room


Год выпуска: 2000
Страна: США Изображение
Слоган: «Anyone who says that money is the root to all evil, doesn't have it.»
Жанр: триллер, драма, криминал
Продолжительность: 119 мин
Перевод: Профессиональный (двухголосый)
Режиссер: Бен Янгер
Сценарий: Бен Янгер
Продюсер: Ричард Бренер, Клер Рубник Полштейн, Памела Пост
Оператор: Энрике Шедьяк
Композитор: Энджел, Фифти Сент, Notorious B.I.G.
В ролях: Вин Дизель,Бен Аффлек, Джованни Рибизи, Ниа Лонг, Никки Кэтт, Скотт Каан, Рон Рифкин, Джейми Кеннеди, Тейлор Николс, Билл Сейдж, Том , Эверетт Скотт
Описание: Задавались ли вы когда-нибудь вопросом, почему некоторые люди выигрывают в лотерею миллионы долларов, а вы нет? Почему вы зарабатываете 4 тыс. долларов в год, а секретарша из «Майкрософт» 140 тыс. долларов? Почему какой-то балбес раскатывает на новеньком «Феррари», а вы с трудом накопили на подержанный «Вольво»? Неужели эти люди умнее или лучше вас ?!?
Эти же вопросы задавал себе и Сэт Девис, молодой шулер, открывший в своей квартире небольшое подпольное казино. Судьба к нему благосклонна и один из клиентов, неимоверно богатый молодой человек, предлагает ему работать на некую брокерскую фирму, где месячная зарплата превышает годовой доход от его казино. Сет счастлив, его мечта осуществляется, деньги льются рекой, но вскоре он начинает понимать, что за все в жизни приходится расплачиваться.

Изображение
MPAA: http://www.kinopoisk.ru/level/38/film/617/rn/R/
Изображение
Мировая премьера: 30 января 2000
Релиз на DVD:30 октября 2008, «Синема Трейд»
Бюджет: $26 000 000
Сборы в США: $16 970 581
Сборы в мире: $28 780 255
Раздача группы: Изображение
Качество: BDRip
Формат: MKV
Видео: 1920x1080, 8008 kbps, 23.976 fps
Аудио №1: AC3, 192 Kbps, 2 channels, 48.0 KHz
Аудио №2: DTS, 1536 Kbps, 6 channels, 48.0 KHz (Eng)

M.I.

Общее
Уникальный идентификатор         : 175097266620654930884296337081531999380 (0x83BA81C3F83226DCB57784E5E30DA494)
Полное имя                       : K:\Фильмы\Boiler Room 1080.mkv
Формат                           : Matroska
Размер файла                     : 8,11 Гбайт
Продолжительность                : 1 ч. 59 м.
Общий поток                      : 9703 Кбит/сек
Дата кодирования                 : UTC 2009-04-26 11:08:00
Программа кодирования            : mkvmerge v2.0.2 ('You're My Flame') built on Feb 21 2007 23:40:55
Библиотека кодирования           : libebml v0.7.7 + libmatroska v0.8.1

Видео
Идентификатор                    : 1
Формат                           : AVC
Формат/Информация                : Advanced Video Codec
Профиль формата                  : High@L4.0
Параметр CABAC формата           : Да
Параметр ReFrames формата        : 4 кадры
Идентификатор кодека             : V_MPEG4/ISO/AVC
Продолжительность                : 1 ч. 59 м.
Битрейт                          : 8008 Кбит/сек
Ширина                           : 1920 пикс.
Высота                           : 1080 пикс.
Соотношение сторон               : 16:9
Частота кадров                   : 23,976 кадр/сек
Цветовое пространство            : YUV
Подвыборка цветности             : 4:2:0
Битовая глубина                  : 8 бит
Тип развёртки                    : Прогрессивная
Бит/(Пиксели*Кадры)              : 0.161
Размер потока                    : 6,52 Гбайт (80%)
Библиотека кодирования           : x264 core 67 r1140 37424f8
Настройки программы              : cabac=1 / ref=4 / deblock=1:0:0 / analyse=0x3:0x113 / me=umh / subme=7 / psy_rd=1.0:0.0 / mixed_ref=1 / me_range=16 / chroma_me=1 / trellis=1 / 8x8dct=1 / cqm=0 / deadzone=21,11 / chroma_qp_offset=-2 / threads=6 / nr=0 / decimate=1 / mbaff=0 / bframes=3 / b_pyramid=1 / b_adapt=1 / b_bias=0 / direct=1 / wpredb=1 / keyint=250 / keyint_min=25 / scenecut=40 / rc=2pass / bitrate=8008 / ratetol=1.0 / qcomp=0.60 / qpmin=10 / qpmax=51 / qpstep=4 / cplxblur=20.0 / qblur=0.5 / ip_ratio=1.40 / pb_ratio=1.30 / aq=1:1.00
Язык                             : English

Аудио #1
Идентификатор                    : 2
Формат                           : AC-3
Формат/Информация                : Audio Coding 3
Расширение режима                : CM (complete main)
Идентификатор кодека             : A_AC3
Продолжительность                : 1 ч. 59 м.
Вид битрейта                     : Постоянный
Битрейт                          : 192 Кбит/сек
Канал(ы)                         : 2 канала(ов)
Расположение каналов             : Front: L R
Частота                          : 48,0 КГц
Битовая глубина                  : 16 бит
Метод сжатия                     : С потерями
Размер потока                    : 164 Мбайт (2%)
Язык                             : Russian

Аудио #2
Идентификатор                    : 3
Формат                           : DTS
Формат/Информация                : Digital Theater Systems
Идентификатор кодека             : A_DTS
Продолжительность                : 1 ч. 59 м.
Вид битрейта                     : Постоянный
Битрейт                          : 1510 Кбит/сек
Канал(ы)                         : 6 канала(ов)
Расположение каналов             : Front: L C R, Side: L R, LFE
Частота                          : 48,0 КГц
Битовая глубина                  : 24 бит
Метод сжатия                     : С потерями
Размер потока                    : 1,26 Гбайт (16%)
Язык                             : English
Свернуть

Скриншоты

Изображение
Изображение
Изображение
Изображение
Свернуть
Не в сети
Профиль  
Начать новую темуОтветить на тему  [ 1 сообщение ] 
Вы не можете начинать темы
Вы не можете отвечать на сообщения
Вы не можете редактировать свои сообщения
Вы не можете удалять свои сообщения