Правила форума

  • В этом разделе создание новых тем Запрещено.
  • Для создания новых тем пользуйтесь Корневым разделом DVD и HD фильмы.
Начать новую темуОтветить на тему  [ Сообщений: 7 ] 
Торрент файл
Размер: 13.25 GB • Зарегистрирован: 4 года 5 месяцев • Статус: Проверено
Скачан: 73 раза • Желающих скачать: 0 • Поблагодарили: 36 раз
 Раздают: 0  |  0 KB/s  ]   Качают: 0  |  0 KB/s  ] 
 Полного источника не было 1 день 18 часов 
Сообщения
 Добавлено: 2013-10-08 19:30
Инквизитор
Аватара пользователя
Стаж: 8 лет 8 месяцев
Сообщений: 3753
Спасибок: 28359
Лайков: 9
Изображение

Бронкская история / A Bronx Tale


Год выпуска: 1993
Страна: США
Слоган: «One man lives in the neighborhood, another man owns it. A devoted father battles the local crime boss for the life of his son.»
Жанр: драма, криминал
Продолжительность: 02:01:32
Перевод: Многоголосый закадровый, Союз-Видео; Многоголосый закадровый, Екатеринбург Арт; Одноголосый закадровый, С.Визгунов; Одноголосый закадровый, Л.Володарский; Одноголосый закадровый, Ю.Живов
Режиссер: Роберт Де Ниро
Сценарий: Чазз Пальминтери
Продюсер: Робин Чэмберс, Роберт Де Ниро, Питер Гэтьен
Оператор: Рейнальдо Вильялобос
Композитор: Буч Барбелла, Джими Хендрикс, Джон Леннон
В ролях: Роберт Де Ниро, Чазз Пальминтери, Лилло Бранкато, Фрэнсис Капра, Тэрал Хикс, Кэтрин Нардуччи, Клем Касерта, Альфред Саукелли мл., Фрэнк Пьетранголаре, Джо , Пеши
Бюджет: $22 000 000
Сборы в США: $17 287 898
Описание: Король бронкской мафии Сонни убил человека. Просто так. Из-за места на парковке. Среди бела дня вытащил пистолет и несколько раз выстрелил. Полиция узнала, что свидетелем преступления был 9-летний Колоджеро, и допросила мальчика. Но Калоджеро не выдавал Сонни. И попал в любимчики мафиози. Что сильно не понравилось водителю автобуса, отцу мальчика.
С этого дня началось сотрудничество Сонни и Калоджеро, и, когда мальчик вырос, он не просто стал свидетелем других кровавых деяний своего босса, но и сам оказался на краю пропасти

Изображение
MPAA: http://s.kinopoisk.ru/level/38/film/7466/rn/R/
Мировая премьера: 14 сентября 1993
Релиз на DVD: 5 марта 2009, «Союз-Видео»
Релиз, раздача группы: Изображение, Изображение
Качество: BDRip, 1080p
Формат: Matroska
Видео: AVC; 1920x1080 (16:9); 11064 Kbps; 23,976 fps; 0,223 bit/pixel
Аудио №1: Russian; AC3; 448 Kbps; CBR; 6 ch
Аудио №2: Russian; AC3; 384 Kbps; CBR; 6 ch
Аудио №3: Russian; AC3; 192 Kbps; CBR; 2 ch
Аудио №4: Russian; AC3; 192 Kbps; CBR; 2 ch
Аудио №5: Russian; DTS; 1509 Kbps; CBR; 2 ch; 16 bit
Аудио №6: English; DTS; 1509 Kbps; CBR; 2 ch; 16 bit

Субтитры №1: Russian
Субтитры №2: Russian
Субтитры №3: English

"Знаете ли Вы, что..."
  • Чазз Пальминтери отказывался продать права на экранизацию книги до тех пор, пока де Ниро не предоставил ему возможность стать автором сценария и сыграть одну из главных ролей в фильме.
  • Фильм поставлен на основе автобиографического произведения Чазза Пальминтери.
  • Роберт де Ниро посвятил картину памяти своего отца.
Свернуть
M.I.
Общее
Уникальный идентификатор                 : 216369284211697975316316287366606801179 (0xA2C735567BF4788FB0020C04395AC91B)
Полное имя                               : E:\Фильмы\A.Bronx.Tale.1993.1080p.Bluray.5xRus.Eng.HDCLUB.mkv
Формат                                   : Matroska
Версия формата                           : Version 2
Размер файла                             : 13,3 Гбайт
Продолжительность                        : 2 ч. 1 м.
Общий поток                              : 15,6 Мбит/сек
Название фильма                          : A Bronx Tale (1993)- Release for HDCLUB
Дата кодирования                         : UTC 2012-06-21 17:50:20
Программа кодирования                    : mkvmerge v3.4.0 ('Rapunzel') сборка от May 15 2010 09:38:20
Библиотека кодирования                   : libebml v0.8.0 + libmatroska v0.9.0

Видео
Идентификатор                            : 1
Формат                                   : AVC
Формат/Информация                        : Advanced Video Codec
Профиль формата                          : High@L4.1
Параметр CABAC формата                   : Да
Параметр ReFrames формата                : 4 кадра
Идентификатор кодека                     : V_MPEG4/ISO/AVC
Продолжительность                        : 2 ч. 1 м.
Битрейт                                  : 11,4 Мбит/сек
Ширина                                   : 1920 пикселей
Высота                                   : 1080 пикселей
Соотношение сторон                       : 16:9
Частота кадров                           : 23,976 кадра/сек
Цветовое пространство                    : YUV
Субдискретизация насыщенности            : 4:2:0
Битовая глубина                          : 8 бит
Тип развёртки                            : Прогрессивная
Бит/(Пиксели*Кадры)                      : 0.229
Размер потока                            : 9,39 Гбайт (71%)
Заголовок                                : Release for HDCLUB
Библиотека кодирования                   : x264 core 125 r2200+666+31 2d8fe44 tMod+MixAQ [8-bit@4:2:0 X86_64]
Настройки программы                      : cabac=1 / ref=4 / deblock=1:-3:-3 / analyse=0x3:0x113 / me=umh / subme=11 / psy=1 / fade_compensate=0.20 / psy_rd=1.10:0.10 / mixed_ref=1 / me_range=48 / chroma_me=1 / trellis=2 / 8x8dct=1 / cqm=0 / deadzone=21,11 / fast_pskip=0 / chroma_qp_offset=-4 / threads=12 / lookahead_threads=2 / sliced_threads=0 / nr=0 / decimate=1 / interlaced=0 / bluray_compat=0 / constrained_intra=0 / fgo=3 / bframes=8 / b_pyramid=2 / b_adapt=2 / b_bias=0 / direct=3 / weightb=1 / open_gop=0 / weightp=2 / keyint=360 / keyint_min=1 / scenecut=40 / intra_refresh=0 / rc_lookahead=240 / rc=2pass / mbtree=1 / bitrate=11371 / ratetol=1.0 / qcomp=0.60 / qpmin=0 / qpmax=69 / qpstep=4 / cplxblur=20.0 / qblur=0.5 / vbv_maxrate=40000 / vbv_bufsize=30000 / nal_hrd=none / ip_ratio=1.40 / aq=4 / aq-strength=0.90 / aq-sensitivity=10.00 / aq-ifactor=1.00 / aq-pfactor=1.00 / aq-bfactor=1.00 / aq2=0
Язык                                     : English
Default                                  : Да
Forced                                   : Нет

Аудио #1
Идентификатор                            : 2
Формат                                   : AC-3
Формат/Информация                        : Audio Coding 3
Расширение режима                        : CM (complete main)
Идентификатор кодека                     : A_AC3
Продолжительность                        : 2 ч. 1 м.
Вид битрейта                             : Постоянный
Битрейт                                  : 448 Кбит/сек
Каналы                                   : 6 каналов
Расположение каналов                     : Front: L C R, Side: L R, LFE
Частота                                  : 48,0 КГц
Битовая глубина                          : 16 бит
Метод сжатия                             : С потерями
Размер потока                            : 389 Мбайт (3%)
Заголовок                                : AC3 5.1ch 448 kbps - Многоголосый, Союз-Видео
Язык                                     : Russian
Default                                  : Да
Forced                                   : Нет

Аудио #2
Идентификатор                            : 3
Формат                                   : AC-3
Формат/Информация                        : Audio Coding 3
Расширение режима                        : CM (complete main)
Идентификатор кодека                     : A_AC3
Продолжительность                        : 2 ч. 1 м.
Вид битрейта                             : Постоянный
Битрейт                                  : 384 Кбит/сек
Каналы                                   : 6 каналов
Расположение каналов                     : Front: L C R, Side: L R, LFE
Частота                                  : 48,0 КГц
Битовая глубина                          : 16 бит
Метод сжатия                             : С потерями
Размер потока                            : 334 Мбайт (2%)
Заголовок                                : AC3 5.1ch 384 kbps - Многоголосый, Екатеринбург Арт
Язык                                     : Russian
Default                                  : Нет
Forced                                   : Нет

Аудио #3
Идентификатор                            : 4
Формат                                   : AC-3
Формат/Информация                        : Audio Coding 3
Расширение режима                        : CM (complete main)
Идентификатор кодека                     : A_AC3
Продолжительность                        : 2 ч. 1 м.
Вид битрейта                             : Постоянный
Битрейт                                  : 192 Кбит/сек
Каналы                                   : 2 канала
Расположение каналов                     : Front: L R
Частота                                  : 48,0 КГц
Битовая глубина                          : 16 бит
Метод сжатия                             : С потерями
Размер потока                            : 167 Мбайт (1%)
Заголовок                                : AC3 2.0ch 192 kbps - Одноголосый, Визгунов
Язык                                     : Russian
Default                                  : Нет
Forced                                   : Нет

Аудио #4
Идентификатор                            : 5
Формат                                   : AC-3
Формат/Информация                        : Audio Coding 3
Расширение режима                        : CM (complete main)
Идентификатор кодека                     : A_AC3
Продолжительность                        : 2 ч. 1 м.
Вид битрейта                             : Постоянный
Битрейт                                  : 192 Кбит/сек
Каналы                                   : 2 канала
Расположение каналов                     : Front: L R
Частота                                  : 48,0 КГц
Битовая глубина                          : 16 бит
Метод сжатия                             : С потерями
Размер потока                            : 167 Мбайт (1%)
Заголовок                                : AC3 2.0ch 192 kbps - Одноголосый, Володарский
Язык                                     : Russian
Default                                  : Нет
Forced                                   : Нет

Аудио #5
Идентификатор                            : 6
Формат                                   : DTS
Формат/Информация                        : Digital Theater Systems
Идентификатор кодека                     : A_DTS
Продолжительность                        : 2 ч. 1 м.
Вид битрейта                             : Постоянный
Битрейт                                  : 1510 Кбит/сек
Каналы                                   : 2 канала
Расположение каналов                     : Front: L R
Частота                                  : 48,0 КГц
Битовая глубина                          : 16 бит
Метод сжатия                             : С потерями
Размер потока                            : 1,28 Гбайт (10%)
Заголовок                                : DTS 2.0ch 1510 kbps - Одноголосый, Живов
Язык                                     : Russian
Default                                  : Нет
Forced                                   : Нет

Аудио #6
Идентификатор                            : 7
Формат                                   : DTS
Формат/Информация                        : Digital Theater Systems
Идентификатор кодека                     : A_DTS
Продолжительность                        : 2 ч. 1 м.
Вид битрейта                             : Постоянный
Битрейт                                  : 1510 Кбит/сек
Каналы                                   : 2 канала
Расположение каналов                     : Front: L R
Частота                                  : 48,0 КГц
Битовая глубина                          : 16 бит
Метод сжатия                             : С потерями
Размер потока                            : 1,28 Гбайт (10%)
Заголовок                                : DTS 2.0ch 1510 kbps
Язык                                     : English
Default                                  : Нет
Forced                                   : Нет

Текст #1
Идентификатор                            : 8
Формат                                   : UTF-8
Идентификатор кодека                     : S_TEXT/UTF8
Идентификатор кодека/Информация          : UTF-8 Plain Text
Заголовок                                : Russian Союз Видео
Язык                                     : Russian
Default                                  : Да
Forced                                   : Нет

Текст #2
Идентификатор                            : 9
Формат                                   : UTF-8
Идентификатор кодека                     : S_TEXT/UTF8
Идентификатор кодека/Информация          : UTF-8 Plain Text
Заголовок                                : Russian Екатеринбург Арт
Язык                                     : Russian
Default                                  : Нет
Forced                                   : Нет

Текст #3
Идентификатор                            : 10
Формат                                   : UTF-8
Идентификатор кодека                     : S_TEXT/UTF8
Идентификатор кодека/Информация          : UTF-8 Plain Text
Заголовок                                : English
Язык                                     : English
Default                                  : Нет
Forced                                   : Нет

Меню
00:00:00.000                             : en:Chapter 1
00:12:44.681                             : en:Chapter 2
00:25:32.114                             : en:Chapter 3
00:33:09.446                             : en:Chapter 4
00:46:20.528                             : en:Chapter 5
00:54:55.334                             : en:Chapter 6
01:04:19.022                             : en:Chapter 7
01:11:43.299                             : en:Chapter 8
01:23:00.893                             : en:Chapter 9
01:28:50.700                             : en:Chapter 10
01:40:22.934                             : en:Chapter 11
01:51:39.610                             : en:Chapter 12
Свернуть
Скриншоты

Изображение
Изображение
Изображение
Изображение
Изображение
Изображение
Изображение
Изображение
Свернуть

 Arshavin нравится это.
Не в сети
Профиль  
 Добавлено: 2013-10-08 21:39 (спустя 2 часа 9 минут)
Аватара пользователя
Стаж: 7 лет 8 месяцев
Сообщений: 35
Лайков: 1
Супер фильм! :bra_vo:
Не в сети
Профиль  
 Добавлено: 2013-10-23 16:01 (спустя 14 дней)
Аватара пользователя
Стаж: 8 лет 6 месяцев
Возраст: 26
Сообщений: 104
Спасибок: 357
Лайков: 1
Калоджеро :-D
Не в сети
Профиль  
 Добавлено: 2013-11-09 21:48 (спустя 17 дней)
Кинокомментатор
Аватара пользователя
Стаж: 9 лет
Сообщений: 1331
Лайков: 52
очень крутое кино! прямо таки очень! смотреть ли его? конечно да, тем более если вы его не смотрели... а если смотрели, то повторить всё это совсем не лишнее! 8/10
_________________
Я ВКонтакте
Не в сети
Профиль  
 Добавлено: 2014-11-03 22:25 (спустя 11 месяцев)
Стаж: 8 лет 3 месяца
Сообщений: 34
Раздайте пожалуйста.
Не в сети
Профиль  
 Добавлено: 2014-11-16 22:17 (спустя 12 дней)
Аватара пользователя
Стаж: 9 лет 1 месяц
Возраст: 31
Сообщений: 982
Спасибок: 1800
Лайков: 17
Если 720х480 растянуть на 1920х1080 это HD???
Не в сети
Профиль  
 Добавлено: 2015-08-01 17:23 (спустя 8 месяцев)
Стаж: 7 лет 3 месяца
Возраст: 48
Сообщений: 7
На раздачу встаньте пожалуйста. Совсем нет скорости.


Тема поднималась пользователем Биг 2015-08-01 17:23.
Не в сети
Профиль  
Начать новую темуОтветить на тему  [ Сообщений: 7 ] 
Вы не можете начинать темы
Вы не можете отвечать на сообщения
Вы не можете редактировать свои сообщения
Вы не можете удалять свои сообщения