Правила форума

  • В этом разделе создание новых тем Запрещено.
  • Для создания новых тем пользуйтесь Корневым разделом DVD и HD фильмы.
Начать новую темуОтветить на тему  [ 1 сообщение ] 
Торрент файл
Размер: 5.34 GB • Зарегистрирован: 4 года 4 месяца • Статус: Проверено
Скачан: 7 раз • Желающих скачать: 0 • Поблагодарили: 7 раз
 Раздают: 0  |  0 KB/s  ]   Качают: 0  |  0 KB/s  ] 
 Полного источника не было 2 года 8 месяцев 
Сообщения
 Добавлено: 2012-07-24 07:09
Top-releaser
Аватара пользователя
Стаж: 6 лет 7 месяцев
Сообщений: 2078
Спасибок: 3230
Лайков: 9
Изображение

Брюс Всемогущий / Bruce Almighty


Год выпуска: 2003
Страна: США
Слоган: «The guy next door just became the man upstairs.»
Жанр: фэнтези, драма, комедия
Продолжительность: 01:41:08
Перевод: Профессиональный (полное дублирование)
Режиссер: Том Шэдьяк
Сценарий: Стив Корен, Марк О’Кифи, Стив Одекерк
Продюсер: Том Шэдьяк, Майкл Бостик, Джеймс Д. Брубэйкер, Джим Керри, Стив Корен
Оператор: Дин Семлер
Композитор: Джон Дебни
В ролях: Джим Керри, Морган Фриман, Дженнифер Энистон, Филип Бейкер Холл, Катрин Белл, Лиза Энн Уолтер, Стив Карелл, Нора Данн, Эдди Джемисон, Пол Сэттерфилд, Марк Кили, Сэлли Кёркленд
Бюджет: $81 000 000
Сборы в мире: $484 572 835
Описание: Брюс Нолан - популярный ведущий теленовостей в Буффало. Он - пессимист, и его ничего не интересует в этой жизни, даже девушка Грейс, которая любит его, несмотря на всю его вредность.
Его репортажи интересуют всех, кроме его самого. Мечта Брюса - быть ведущим, тем более местечко вот-вот должно освободиться. Но однажды Брюса настигает неудача, и его увольняют с работы. В конец разочарованный Брюс гневается на Бога, а тот отвечает ему! Всемогущий предлагает Брюсу сменить его на неделю и посмотреть, сможет ли он сделать мир хоть чуточку лучше.
Изображение
Раздача группы: Изображение
Качество: BDRip, 720p
Формат: Matroska
Видео: AVC; 1280x720 (16:9); 4508 Kbps; 23,976 fps; 0,204 bit/pixel
Аудио №1: Russian; DTS; 754 Kbps; CBR; 6 ch; 24 bit
Аудио №2: Russian; AC3; 384 Kbps; CBR; 6 ch
Аудио №3: Ukrainian; AC3; 256 Kbps; CBR; 2 ch
Аудио №4: English; DTS; 1509 Kbps; CBR; 6 ch; 24 bit
Субтитры: Bulgarian, Czech, English, Finnish, Hungarian, Romanian, Russian, Spanish, Swedish

"Знаете ли Вы, что..."
  • Съёмки картины начались 6-го августа 2002 года. Они проходили в Лос-Анджелесе, Нью-Йорке и на Ниагарском водопаде. Закончились съёмки в начале осени того же года.
Свернуть
MediaInfo
Общее
Уникальный идентификатор : 246294600183470244265862485249429208706 (0xB94A9D540749F581944DD605A941FE82)
Полное имя : Z:\WWW\TR-Downloads\Bruce.Almighty.720p[R.G.Daredevil].mkv
Формат : Matroska
Версия формата : Version 2
Размер файла : 5,34 Гбайт
Продолжительность : 1 ч. 41 м.
Общий поток : 7563 Кбит/сек
Название фильма : Bruce Almighty (2003) - Release for HDClub
Дата кодирования : UTC 2010-07-12 17:21:57
Программа кодирования : mkvmerge v4.0.0 ('The Stars were mine') сборка от Jun 6 2010 16:18:42
Библиотека кодирования : libebml v1.0.0 + libmatroska v1.0.0

Видео
Идентификатор : 1
Формат : AVC
Формат/Информация : Advanced Video Codec
Профиль формата : High@L4.1
Параметр CABAC формата : Да
Параметр ReFrames формата : 9 кадров
Идентификатор кодека : V_MPEG4/ISO/AVC
Продолжительность : 1 ч. 41 м.
Битрейт : 4662 Кбит/сек
Ширина : 1280 пикселей
Высота : 720 пикселей
Соотношение сторон : 16:9
Частота кадров : 23,976 кадра/сек
Цветовое пространство : YUV
Субдискретизация насыщенности : 4:2:0
Битовая глубина : 8 бит
Тип развёртки : Прогрессивная
Бит/(Пиксели*Кадры) : 0.211
Размер потока : 3,18 Гбайт (60%)
Заголовок : Bruce Almighty (2003) - Release for HDClub
Библиотека кодирования : x264 core 67 r1162M f7bfcfa
Настройки программы : cabac=1 / ref=9 / deblock=1:-3:-3 / analyse=0x3:0x113 / me=umh / subme=9 / psy_rd=1.0:0.8 / mixed_ref=1 / me_range=32 / chroma_me=1 / trellis=2 / 8x8dct=1 / cqm=0 / deadzone=21,11 / chroma_qp_offset=-4 / threads=6 / nr=0 / decimate=1 / mbaff=0 / bframes=4 / b_pyramid=0 / b_adapt=2 / b_bias=0 / direct=3 / wpredb=1 / keyint=250 / keyint_min=25 / scenecut=40 / rc=2pass / bitrate=4662 / ratetol=1.0 / qcomp=0.60 / qpmin=10 / qpmax=51 / qpstep=4 / cplxblur=20.0 / qblur=0.5 / vbv_maxrate=50000 / vbv_bufsize=50000 / ip_ratio=1.40 / pb_ratio=1.30 / aq=1:0.80
Язык : English
Default : Да
Forced : Нет

Аудио #1
Идентификатор : 2
Формат : DTS
Формат/Информация : Digital Theater Systems
Идентификатор кодека : A_DTS
Продолжительность : 1 ч. 41 м.
Вид битрейта : Постоянный
Битрейт : 755 Кбит/сек
Каналы : 6 каналов
Расположение каналов : Front: L C R, Side: L R, LFE
Частота : 48,0 КГц
Битовая глубина : 24 бит
Метод сжатия : С потерями
Размер потока : 546 Мбайт (10%)
Заголовок : дубляж [dts 6ch 755 kbps]
Язык : Russian
Default : Да
Forced : Нет

Аудио #2
Идентификатор : 3
Формат : AC-3
Формат/Информация : Audio Coding 3
Расширение режима : CM (complete main)
Параметр Endianness формата : Big
Идентификатор кодека : A_AC3
Продолжительность : 1 ч. 41 м.
Вид битрейта : Постоянный
Битрейт : 384 Кбит/сек
Каналы : 6 каналов
Расположение каналов : Front: L C R, Side: L R, LFE
Частота : 48,0 КГц
Битовая глубина : 16 бит
Метод сжатия : С потерями
Размер потока : 278 Мбайт (5%)
Заголовок : двухголосый закадровый [ac3 6ch 384 kbps]
Язык : Russian
Default : Нет
Forced : Нет

Аудио #3
Идентификатор : 4
Формат : AC-3
Формат/Информация : Audio Coding 3
Расширение режима : CM (complete main)
Параметр Endianness формата : Big
Идентификатор кодека : A_AC3
Продолжительность : 1 ч. 41 м.
Вид битрейта : Постоянный
Битрейт : 256 Кбит/сек
Каналы : 2 канала
Расположение каналов : Front: L R
Частота : 48,0 КГц
Битовая глубина : 16 бит
Метод сжатия : С потерями
Размер потока : 185 Мбайт (3%)
Заголовок : многоголосый закадровый [ac3 2ch 256 kbps]
Язык : Ukrainian
Default : Нет
Forced : Нет

Аудио #4
Идентификатор : 5
Формат : DTS
Формат/Информация : Digital Theater Systems
Идентификатор кодека : A_DTS
Продолжительность : 1 ч. 41 м.
Вид битрейта : Постоянный
Битрейт : 1510 Кбит/сек
Каналы : 6 каналов
Расположение каналов : Front: L C R, Side: L R, LFE
Частота : 48,0 КГц
Битовая глубина : 24 бит
Метод сжатия : С потерями
Размер потока : 1,07 Гбайт (20%)
Заголовок : original [dts 6ch 1509 kbps]
Язык : English
Default : Нет
Forced : Нет

Текст #1
Идентификатор : 6
Формат : UTF-8
Идентификатор кодека : S_TEXT/UTF8
Идентификатор кодека/Информация : UTF-8 Plain Text
Язык : Bulgarian
Default : Нет
Forced : Нет

Текст #2
Идентификатор : 7
Формат : UTF-8
Идентификатор кодека : S_TEXT/UTF8
Идентификатор кодека/Информация : UTF-8 Plain Text
Язык : Czech
Default : Нет
Forced : Нет

Текст #3
Идентификатор : 8
Формат : UTF-8
Идентификатор кодека : S_TEXT/UTF8
Идентификатор кодека/Информация : UTF-8 Plain Text
Язык : English
Default : Нет
Forced : Нет

Текст #4
Идентификатор : 9
Формат : UTF-8
Идентификатор кодека : S_TEXT/UTF8
Идентификатор кодека/Информация : UTF-8 Plain Text
Язык : Finnish
Default : Нет
Forced : Нет

Текст #5
Идентификатор : 10
Формат : UTF-8
Идентификатор кодека : S_TEXT/UTF8
Идентификатор кодека/Информация : UTF-8 Plain Text
Язык : Hungarian
Default : Нет
Forced : Нет

Текст #6
Идентификатор : 11
Формат : UTF-8
Идентификатор кодека : S_TEXT/UTF8
Идентификатор кодека/Информация : UTF-8 Plain Text
Язык : Romanian
Default : Нет
Forced : Нет

Текст #7
Идентификатор : 12
Формат : UTF-8
Идентификатор кодека : S_TEXT/UTF8
Идентификатор кодека/Информация : UTF-8 Plain Text
Язык : Russian
Default : Нет
Forced : Нет

Текст #8
Идентификатор : 13
Формат : UTF-8
Идентификатор кодека : S_TEXT/UTF8
Идентификатор кодека/Информация : UTF-8 Plain Text
Язык : Spanish
Default : Нет
Forced : Нет

Текст #9
Идентификатор : 14
Формат : UTF-8
Идентификатор кодека : S_TEXT/UTF8
Идентификатор кодека/Информация : UTF-8 Plain Text
Язык : Swedish
Default : Нет
Forced : Нет
Свернуть
Скриншоты

Изображение

Изображение

Изображение

Изображение

Изображение
Свернуть
Не в сети
Профиль  
Начать новую темуОтветить на тему  [ 1 сообщение ] 
Вы не можете начинать темы
Вы не можете отвечать на сообщения
Вы не можете редактировать свои сообщения
Вы не можете удалять свои сообщения