Правила форума

  • В этом разделе создание новых тем Запрещено.
  • Для создания новых тем пользуйтесь Корневым разделом DVD и HD фильмы.
Начать новую темуОтветить на тему  [ 1 сообщение ] 
Торрент файл
Размер: 9.28 GB • Зарегистрирован: 4 года 4 месяца • Статус: Проверено
Скачан: 27 раз • Желающих скачать: 0 • Поблагодарили: 13 раз
 Раздают: 0  |  0 KB/s  ]   Качают: 0  |  0 KB/s  ] 
 Полного источника не было 3 года 2 месяца 
Сообщения
 Добавлено: 2012-07-24 07:24
Top-releaser
Аватара пользователя
Стаж: 6 лет 7 месяцев
Сообщений: 2078
Спасибок: 3230
Лайков: 9
Изображение

Брюс Всемогущий / Bruce Almighty


Год выпуска: 2003
Страна: США
Слоган: «The guy next door just became the man upstairs.»
Жанр: фэнтези, драма, комедия
Продолжительность: 01:41:02
Перевод: Профессиональный (полное дублирование)
Режиссер: Том Шэдьяк
Сценарий: Стив Корен, Марк О’Кифи, Стив Одекерк
Продюсер: Том Шэдьяк, Майкл Бостик, Джеймс Д. Брубэйкер, Джим Керри, Стив Корен
Оператор: Дин Семлер
Композитор: Джон Дебни
В ролях: Джим Керри, Морган Фриман, Дженнифер Энистон, Филип Бейкер Холл, Катрин Белл, Лиза Энн Уолтер, Стив Карелл, Нора Данн, Эдди Джемисон, Пол Сэттерфилд, Марк Кили, Сэлли Кёркленд
Бюджет: $81 000 000
Сборы в мире: $484 572 835
Описание: Брюс Нолан - популярный ведущий теленовостей в Буффало. Он - пессимист, и его ничего не интересует в этой жизни, даже девушка Грейс, которая любит его, несмотря на всю его вредность.
Его репортажи интересуют всех, кроме его самого. Мечта Брюса - быть ведущим, тем более местечко вот-вот должно освободиться. Но однажды Брюса настигает неудача, и его увольняют с работы. В конец разочарованный Брюс гневается на Бога, а тот отвечает ему! Всемогущий предлагает Брюсу сменить его на неделю и посмотреть, сможет ли он сделать мир хоть чуточку лучше
Изображение
Раздача группы: Изображение
Качество: BDRip, 1080p
Формат: Matroska
Видео: AVC; 1920x1080 (16:9); 10625 Kbps; 23,976 fps; 0,214 bit/pixel
Аудио №1: Russian; DTS; 754 Kbps; CBR; 6 ch; 24 bit
Аудио №2: English; DTS; 1509 Kbps; CBR; 6 ch; 24 bit
Субтитры: English, Bulgarian, Czech, Finnish, Hungarian, Portuguese, Romanian, Spanish, Swedish

"Знаете ли Вы, что..."
  • Съёмки картины начались 6-го августа 2002 года. Они проходили в Лос-Анджелесе, Нью-Йорке и на Ниагарском водопаде. Закончились съёмки в начале осени того же года.
Свернуть
MediaInfo
Общее
Уникальный идентификатор : 172404021335346117672573019132386908359 (0x81B3CE855978DA9991E2A082030C98C7)
Полное имя : Z:\WWW\TR-Downloads\Bruce.Almighty.1080p[R.G.Daredevil].mkv
Формат : Matroska
Версия формата : Version 1
Размер файла : 9,28 Гбайт
Продолжительность : 1 ч. 41 м.
Общий поток : 13,2 Мбит/сек
Название фильма : -=HANSMER=-
Дата кодирования : UTC 2008-04-22 11:03:41
Программа кодирования : mkvmerge v2.2.0 ('Turn It On Again') built on Mar 4 2008 13:20:25
Библиотека кодирования : libebml v0.7.7 + libmatroska v0.8.1

Видео
Идентификатор : 1
Формат : AVC
Формат/Информация : Advanced Video Codec
Профиль формата : High@L4.1
Параметр CABAC формата : Да
Параметр ReFrames формата : 5 кадров
Идентификатор кодека : V_MPEG4/ISO/AVC
Продолжительность : 1 ч. 41 м.
Битрейт : 10,9 Мбит/сек
Ширина : 1920 пикселей
Высота : 1080 пикселей
Соотношение сторон : 16:9
Частота кадров : 23,976 кадра/сек
Цветовое пространство : YUV
Субдискретизация насыщенности : 4:2:0
Битовая глубина : 8 бит
Тип развёртки : Прогрессивная
Бит/(Пиксели*Кадры) : 0.219
Размер потока : 7,50 Гбайт (81%)
Заголовок : Bruce.Almighty.2003.1080p.BluRay.DTS.x264-HDV
Библиотека кодирования : x264 core 59 r821M 44361e9
Настройки программы : cabac=1 / ref=5 / deblock=1:-3:-3 / analyse=0x3:0x113 / me=umh / subme=7 / me-prepass=0 / brdo=1 / mixed_ref=1 / me_range=16 / chroma_me=1 / trellis=1 / 8x8dct=1 / cqm=2 / deadzone=6,4 / chroma_qp_offset=0 / threads=6 / nr=0 / decimate=1 / mbaff=0 / bframes=3 / b_pyramid=1 / b_adapt=1 / b_bias=0 / direct=3 / wpredb=1 / bime=1 / keyint=250 / keyint_min=25 / scenecut=40(pre) / rc=2pass / bitrate=10880 / ratetol=1.0 / rceq='blurCplx^(1-qComp)' / qcomp=1.00 / qpmin=10 / qpmax=51 / qpstep=4 / cplxblur=20.0 / qblur=0.5 / ip_ratio=1.40 / pb_ratio=1.30 / aq=2:1.00
Язык : English
Default : Да
Forced : Нет

Аудио #1
Идентификатор : 2
Формат : DTS
Формат/Информация : Digital Theater Systems
Идентификатор кодека : A_DTS
Продолжительность : 1 ч. 41 м.
Вид битрейта : Постоянный
Битрейт : 755 Кбит/сек
Каналы : 6 каналов
Расположение каналов : Front: L C R, Side: L R, LFE
Частота : 48,0 КГц
Битовая глубина : 24 бит
Метод сжатия : С потерями
Размер потока : 545 Мбайт (6%)
Язык : Russian
Default : Да
Forced : Нет

Аудио #2
Идентификатор : 3
Формат : DTS
Формат/Информация : Digital Theater Systems
Идентификатор кодека : A_DTS
Продолжительность : 1 ч. 41 м.
Вид битрейта : Постоянный
Битрейт : 1510 Кбит/сек
Каналы : 6 каналов
Расположение каналов : Front: L C R, Side: L R, LFE
Частота : 48,0 КГц
Битовая глубина : 24 бит
Метод сжатия : С потерями
Размер потока : 1,07 Гбайт (11%)
Язык : English
Default : Нет
Forced : Нет

Текст #1
Идентификатор : 4
Формат : UTF-8
Идентификатор кодека : S_TEXT/UTF8
Идентификатор кодека/Информация : UTF-8 Plain Text
Язык : English
Default : Да
Forced : Нет

Текст #2
Идентификатор : 5
Формат : UTF-8
Идентификатор кодека : S_TEXT/UTF8
Идентификатор кодека/Информация : UTF-8 Plain Text
Язык : Bulgarian
Default : Нет
Forced : Нет

Текст #3
Идентификатор : 6
Формат : UTF-8
Идентификатор кодека : S_TEXT/UTF8
Идентификатор кодека/Информация : UTF-8 Plain Text
Язык : Czech
Default : Нет
Forced : Нет

Текст #4
Идентификатор : 7
Формат : UTF-8
Идентификатор кодека : S_TEXT/UTF8
Идентификатор кодека/Информация : UTF-8 Plain Text
Язык : Finnish
Default : Нет
Forced : Нет

Текст #5
Идентификатор : 8
Формат : UTF-8
Идентификатор кодека : S_TEXT/UTF8
Идентификатор кодека/Информация : UTF-8 Plain Text
Язык : Hungarian
Default : Нет
Forced : Нет

Текст #6
Идентификатор : 9
Формат : UTF-8
Идентификатор кодека : S_TEXT/UTF8
Идентификатор кодека/Информация : UTF-8 Plain Text
Заголовок : Br
Язык : Portuguese
Default : Нет
Forced : Нет

Текст #7
Идентификатор : 10
Формат : UTF-8
Идентификатор кодека : S_TEXT/UTF8
Идентификатор кодека/Информация : UTF-8 Plain Text
Заголовок : Pt
Язык : Portuguese
Default : Нет
Forced : Нет

Текст #8
Идентификатор : 11
Формат : UTF-8
Идентификатор кодека : S_TEXT/UTF8
Идентификатор кодека/Информация : UTF-8 Plain Text
Язык : Romanian
Default : Нет
Forced : Нет

Текст #9
Идентификатор : 12
Формат : UTF-8
Идентификатор кодека : S_TEXT/UTF8
Идентификатор кодека/Информация : UTF-8 Plain Text
Язык : Spanish
Default : Нет
Forced : Нет

Текст #10
Идентификатор : 13
Формат : UTF-8
Идентификатор кодека : S_TEXT/UTF8
Идентификатор кодека/Информация : UTF-8 Plain Text
Язык : Swedish
Default : Нет
Forced : Нет
Свернуть
Скриншоты
Изображение

Изображение

Изображение

Изображение

Изображение
Свернуть
Не в сети
Профиль  
Начать новую темуОтветить на тему  [ 1 сообщение ] 
Вы не можете начинать темы
Вы не можете отвечать на сообщения
Вы не можете редактировать свои сообщения
Вы не можете удалять свои сообщения