Правила форума

  • В этом разделе создание новых тем Запрещено.
  • Для создания новых тем пользуйтесь Корневым разделом DVD и HD фильмы.
Начать новую темуОтветить на тему  [ Сообщений: 8 ] 
Торрент файл
Размер: 5.7 GB • Зарегистрирован: 3 года 10 месяцев • Статус: Проверено
Скачан: 36 раз • Желающих скачать: 0 • Поблагодарили: 8 раз
 Раздают: 0  |  0 KB/s  ]   Качают: 0  |  0 KB/s  ] 
 Полного источника не было 2 года 11 месяцев 
Сообщения
 Добавлено: 2013-01-19 23:04
Руководитель релиз-группы
Аватара пользователя
Стаж: 7 лет 4 месяца
Возраст: 31
Сообщений: 3407
Спасибок: 46728
Лайков: 5
Изображение

Бункер
La cara oculta


Год выпуска: 2011
Страна: Колумбия, Испания
Слоган: «Тебе никогда не откроют дверь»
Жанр: триллер
Продолжительность: 01:36:31
Перевод: Профессиональный (многоголосый, закадровый) [лицензия]
Режиссер: Андрес Баиз
Сценарий: Хатем Храиче, Андрес Баиз, Артуро Инфанте
Продюсер: Андрес Калдерон, Андрес Калдерон, Кристиан Конти, Джулиана Флорез, Родриго Герерро
Оператор: Джозеп М. Сивит
Композитор: Федерико Хусид
В ролях: Клара Лаго, Ким Гутьеррес, Мартина Гарсия, Хуан Альфонсо Баптиста, Марсела Бенхумеа, Марсела Мар Умберто Дорадо, Хосе Луис Гарсиа, Марсела Гардеазабаль, Мозад, Мария Соледад Родригез, Александра Стюарт
Описание: Официантка Фабиана знакомится с одним из случайных посетителей, переживающим сложный период в жизни. Между ними вспыхивает страсть. Для девушки все кажется идеальным: ее любимый работает дирижером оркестра филармонии в Боготе и владеет огромным особняком. Однако вскоре появляются непредвиденные сложности. Полиция расследует таинственное исчезновения бывшей невесты и подруги дирижера, а сама девушка начинает чувствовать, что в доме происходит нечто странное.
Изображение
Релиз: Изображение Раздача группы: Изображение
Качество: BDRip, 720p
Формат: Matroska
Видео: AVC; 1280x544 (2.35:1); 7204 Kbps; 24 fps; 0,431 bit/pixel
Аудио №1: AC3; 448 Kbps; CBR; 6 ch Russian
Аудио №2: AC3; 640 Kbps; CBR; 6 ch Spanish
Субтитры: Russian, English
Изображение
mediainfo

Формат : Matroska
Версия формата : Version 2
Размер файла : 5,70 Гбайт
Продолжительность : 1 ч. 36 м.
Общий поток : 8461 Кбит/сек
Название фильма : IRONCLUB
Дата кодирования : UTC 2013-01-18 13:04:30
Программа кодирования : mkvmerge v5.2.0 ('I can't explain') built on Dec 18 2011 18:12:03
Библиотека кодирования : libebml v1.2.3 + libmatroska v1.3.0

Видео
Идентификатор : 1
Формат : AVC
Формат/Информация : Advanced Video Codec
Профиль формата : High@L4.1
Параметр CABAC формата : Да
Параметр ReFrames формата : 12 кадров
Идентификатор кодека : V_MPEG4/ISO/AVC
Продолжительность : 1 ч. 36 м.
Битрейт : 7373 Кбит/сек
Ширина : 1280 пикселей
Высота : 544 пикселя
Соотношение сторон : 2,35:1
Частота кадров : 24,000 кадра/сек
Цветовое пространство : YUV
Субдискретизация насыщенности : 4:2:0
Битовая глубина : 8 бит
Тип развёртки : Прогрессивная
Бит/(Пиксели*Кадры) : 0.441
Размер потока : 4,86 Гбайт (85%)
Заголовок : The Hidden Face 2011 720p BluRay AC3 x264 ROSubbed-EbP
Библиотека кодирования : x264 core 118 r2085 8a62835
Настройки программы : cabac=1 / ref=12 / deblock=1:-3:-3 / analyse=0x3:0x133 / me=umh / subme=9 / psy=1 / psy_rd=1.10:0.10 / mixed_ref=1 / me_range=16 / chroma_me=1 / trellis=2 / 8x8dct=1 / cqm=0 / deadzone=21,11 / fast_pskip=0 / chroma_qp_offset=-3 / threads=12 / sliced_threads=0 / nr=0 / decimate=0 / interlaced=0 / bluray_compat=0 / constrained_intra=0 / bframes=8 / b_pyramid=2 / b_adapt=2 / b_bias=0 / direct=3 / weightb=1 / open_gop=0 / weightp=2 / keyint=250 / keyint_min=24 / scenecut=40 / intra_refresh=0 / rc=2pass / mbtree=0 / bitrate=7373 / ratetol=1.0 / qcomp=0.30 / qpmin=8 / qpmax=51 / qpstep=4 / cplxblur=20.0 / qblur=0.5 / ip_ratio=1.40 / pb_ratio=1.30 / aq=1:0.95
Язык : Spanish
Коэффициенты матрицы : BT.709-5, BT.1361, IEC 61966-2-4 709, SMPTE RP177

Аудио #1
Идентификатор : 2
Формат : AC-3
Формат/Информация : Audio Coding 3
Расширение режима : CM (complete main)
Идентификатор кодека : A_AC3
Продолжительность : 1 ч. 36 м.
Вид битрейта : Постоянный
Битрейт : 448 Кбит/сек
Каналы : 6 каналов
Расположение каналов : Front: L C R, Side: L R, LFE
Частота : 48,0 КГц
Битовая глубина : 16 бит
Метод сжатия : С потерями
Размер потока : 309 Мбайт (5%)
Заголовок : DD 5.1 @ 448 kbps - MVO, R5
Язык : Russian

Аудио #2
Идентификатор : 3
Формат : AC-3
Формат/Информация : Audio Coding 3
Расширение режима : CM (complete main)
Идентификатор кодека : A_AC3
Продолжительность : 1 ч. 36 м.
Вид битрейта : Постоянный
Битрейт : 640 Кбит/сек
Каналы : 6 каналов
Расположение каналов : Front: L C R, Side: L R, LFE
Частота : 48,0 КГц
Битовая глубина : 16 бит
Метод сжатия : С потерями
Размер потока : 442 Мбайт (8%)
Заголовок : DD 5.1 @ 640 kbps
Язык : Spanish

Текст #1
Идентификатор : 4
Формат : UTF-8
Идентификатор кодека : S_TEXT/UTF8
Идентификатор кодека/Информация : UTF-8 Plain Text
Язык : Russian

Текст #2
Идентификатор : 5
Формат : UTF-8
Идентификатор кодека : S_TEXT/UTF8
Идентификатор кодека/Информация : UTF-8 Plain Text
Язык : English

Свернуть
Скриншоты

Изображение

Изображение

Изображение

Изображение


Свернуть
Не в сети
Профиль  
 Добавлено: 2013-01-19 23:57 (спустя 52 минуты)
Software R.G.
Аватара пользователя
Стаж: 8 лет 6 месяцев
Возраст: 32
Сообщений: 523
Спасибок: 2479
Лайков: 3
как фильм
Не в сети
Профиль  
 Добавлено: 2013-01-20 07:53 (спустя 7 часов)
Стаж: 3 года 11 месяцев
Сообщений: 9
раздал бы кто...
Не в сети
Профиль  
 Добавлено: 2013-01-20 21:42 (спустя 13 часов)
Software R.G.
Аватара пользователя
Стаж: 8 лет 6 месяцев
Возраст: 32
Сообщений: 523
Спасибок: 2479
Лайков: 3
вроде 10 раздающих
Не в сети
Профиль  
 Добавлено: 2013-01-20 23:11 (спустя 1 час 28 минут)
Аватара пользователя
Стаж: 6 лет 8 месяцев
Сообщений: 922
вот как всегда баба что нибудь придумает а потом мужики отвечают
Не в сети
Профиль  
 Добавлено: 2013-01-20 23:50 (спустя 39 минут)
Software R.G.
Аватара пользователя
Стаж: 8 лет 6 месяцев
Возраст: 32
Сообщений: 523
Спасибок: 2479
Лайков: 3
и не говори
Не в сети
Профиль  
 Добавлено: 2013-01-21 12:58 (спустя 13 часов)
Стаж: 3 года 11 месяцев
Сообщений: 9
Концовка открытая, а мужик крайний... Неплохой фильмец, но яма круче...
Не в сети
Профиль  
 Добавлено: 2013-01-21 22:29 (спустя 9 часов)
Software R.G.
Аватара пользователя
Стаж: 8 лет 6 месяцев
Возраст: 32
Сообщений: 523
Спасибок: 2479
Лайков: 3
не знаю мне не с чем сравнить потому что не видел ни один ни другой
Не в сети
Профиль  
Начать новую темуОтветить на тему  [ Сообщений: 8 ] 
Вы не можете начинать темы
Вы не можете отвечать на сообщения
Вы не можете редактировать свои сообщения
Вы не можете удалять свои сообщения