Правила форума

  • В этом разделе создание новых тем Запрещено.
  • Для создания новых тем пользуйтесь Корневым разделом DVD и HD фильмы.
Начать новую темуОтветить на тему  [ Сообщений: 3 ] 
Торрент файл
Размер: 9.04 GB • Зарегистрирован: 3 года 10 месяцев • Статус: Проверено
Скачан: 194 раза • Желающих скачать: 0 • Поблагодарили: 43 раза
 Раздают: 0  |  0 KB/s  ]   Качают: 0  |  0 KB/s  ] 
 Полного источника не было 6 месяцев 
Сообщения
 Добавлено: 2013-01-19 01:52
Аватара пользователя
Стаж: 9 лет 1 месяц
Сообщений: 8018
Спасибок: 122267
Лайков: 1194
Бункер (Темная сторона) / Bunker (La cara oculta)

«Тебе никогда не откроют дверь»

Изображение


Год выпуска: 2011
Страна: Изображение Испания Изображение Колумбия
Жанр: триллер
Продолжительность: 01:36:31
Перевод: Профессиональный (многоголосый, закадровый) [Лицензия]


Режиссёр: Андрес Баиз
Сценарист: Хатем Храиче, Андрес Баиз, Артуро Инфанте
Продюсер: Андрес Калдерон, Андрес Калдерон, Кристиан Конти
Оператор: Джозеп М. Сивит
Композитор: Федерико Хусид

В ролях: Клара Лаго, Ким Гутьеррес, Мартина Гарсия, Хуан Альфонсо Баптиста, Марсела Бенхумеа, Марсела Мар Умберто Дорадо, Хосе Луис Гарсиа, Марсела Гардеазабаль, Мозад, Мария Соледад Родригез

Описание: Официантка Фабиана знакомится с одним из случайных посетителей, переживающим сложный период в жизни. Между ними вспыхивает страсть. Для девушки все кажется идеальным: ее любимый работает дирижером оркестра филармонии в Боготе и владеет огромным особняком. Однако вскоре появляются непредвиденные сложности. Полиция расследует таинственное исчезновения бывшей невесты и подруги дирижера, а сама девушка начинает чувствовать, что в доме происходит нечто странное.

Изображение Изображение

Качество: BDRip (1080p)
Формат: Matroska
Видео: MPEG-4 AVC, 11.5 Мбит/с, 1920x816
Аудио №1: Русский (AC3, 6 ch, 448 Кбит/с)
Аудио №2: Испанский (DTS, 6 ch, 1509 Кбит/с)

MediaInfo
Общее
Уникальный идентификатор : 246068600602084673698291565517291212024 (0xB91F16B04762B704B22D46901C2D4CF8)
Полное имя : H:\Bunker.2011.P.BDRip.1080p.Rus.Rng.nntt.org.mkv
Формат : Matroska
Версия формата : Version 2
Размер файла : 9,04 Гбайт
Продолжительность : 1 ч. 36 м.
Общий поток : 13,4 Мбит/сек
Дата кодирования : UTC 2013-01-18 22:37:52
Программа кодирования : mkvmerge v5.7.0 ('The Whirlwind') built on Jul 29 2012 15:12:35
Библиотека кодирования : libebml v1.2.3 + libmatroska v1.3.0

Видео
Идентификатор : 1
Формат : AVC
Формат/Информация : Advanced Video Codec
Профиль формата : High@L4.1
Параметр CABAC формата : Да
Параметр ReFrames формата : 5 кадров
Идентификатор кодека : V_MPEG4/ISO/AVC
Продолжительность : 1 ч. 36 м.
Битрейт : 11,5 Мбит/сек
Ширина : 1920 пикселей
Высота : 816 пикселей
Соотношение сторон : 2,35:1
Режим частоты кадров : Постоянный
Частота кадров : 24,000 кадра/сек
Цветовое пространство : YUV
Субдискретизация насыщенности : 4:2:0
Битовая глубина : 8 бит
Тип развёртки : Прогрессивная
Бит/(Пиксели*Кадры) : 0.305
Размер потока : 7,54 Гбайт (83%)
Заголовок : http://goliaf.tv/
Библиотека кодирования : x264 core 120 r2164 da19765
Настройки программы : cabac=1 / ref=5 / deblock=1:-3:-3 / analyse=0x3:0x133 / me=umh / subme=10 / psy=1 / psy_rd=1.00:0.00 / mixed_ref=1 / me_range=48 / chroma_me=1 / trellis=2 / 8x8dct=1 / cqm=0 / deadzone=21,11 / fast_pskip=1 / chroma_qp_offset=-2 / threads=12 / sliced_threads=0 / nr=0 / decimate=0 / interlaced=0 / bluray_compat=0 / constrained_intra=0 / bframes=7 / b_pyramid=2 / b_adapt=2 / b_bias=0 / direct=3 / weightb=1 / open_gop=0 / weightp=2 / keyint=250 / keyint_min=24 / scenecut=40 / intra_refresh=0 / rc_lookahead=60 / rc=2pass / mbtree=0 / bitrate=11462 / ratetol=1.0 / qcomp=0.60 / qpmin=0 / qpmax=69 / qpstep=4 / cplxblur=20.0 / qblur=0.5 / vbv_maxrate=30000 / vbv_bufsize=30000 / nal_hrd=none / ip_ratio=1.50 / pb_ratio=1.30 / aq=1:1.00
Язык : English
Default : Нет
Forced : Нет

Аудио #1
Идентификатор : 2
Формат : AC-3
Формат/Информация : Audio Coding 3
Расширение режима : CM (complete main)
Параметр Endianness формата : Big
Идентификатор кодека : A_AC3
Продолжительность : 1 ч. 36 м.
Вид битрейта : Постоянный
Битрейт : 448 Кбит/сек
Каналы : 6 каналов
Расположение каналов : Front: L C R, Side: L R, LFE
Частота : 48,0 КГц
Битовая глубина : 16 бит
Метод сжатия : С потерями
Размер потока : 309 Мбайт (3%)
Default : Да
Forced : Да

Аудио #2
Идентификатор : 3
Формат : DTS
Формат/Информация : Digital Theater Systems
Режим : 16
Параметр Endianness формата : Big
Идентификатор кодека : A_DTS
Продолжительность : 1 ч. 36 м.
Вид битрейта : Постоянный
Битрейт : 1509 Кбит/сек
Каналы : 6 каналов
Расположение каналов : Front: L C R, Side: L R, LFE
Частота : 48,0 КГц
Битовая глубина : 24 бит
Метод сжатия : С потерями
Задержка видео : 11 мс.
Размер потока : 1,02 Гбайт (11%)
Язык : English
Default : Нет
Forced : Нет
Свернуть
Скриншоты
Изображение
Изображение
Изображение
Изображение
Изображение
Свернуть
Не в сети
Профиль  
 Добавлено: 2013-01-20 00:26 (спустя 22 часа)
Top-seeder
Аватара пользователя
Стаж: 8 лет 11 месяцев
Возраст: 29
Сообщений: 247
Спасибок: 123
Ничего так фильмец, можно посмотреть. Первая часть скучная, даже промотать хотелось, но к середине сюжет таки набрал оборотов. Спасибо автору.
З.Ы. Можно сэкономить время, посмотрев трейлер))) С рекламой явно переборщили и выложили буквально все карты на стол.
Не в сети
Профиль  
 Добавлено: 2013-01-22 00:15 (спустя 1 день 23 часа)
Модератор
Аватара пользователя
Стаж: 9 лет
Сообщений: 3446
Спасибок: 1556
Лайков: 77
Норм, не обычно :)
_________________
Пока тут пусто.
Не в сети
Профиль  
Начать новую темуОтветить на тему  [ Сообщений: 3 ] 
Вы не можете начинать темы
Вы не можете отвечать на сообщения
Вы не можете редактировать свои сообщения
Вы не можете удалять свои сообщения