Правила форума

  • В этом разделе создание новых тем Запрещено.
  • Для создания новых тем пользуйтесь Корневым разделом DVD и HD фильмы.
Начать новую темуОтветить на тему  [ Сообщений: 2 ] 
Торрент файл
Размер: 8.6 GB • Зарегистрирован: 3 года 4 месяца • Статус: Проверено
Скачан: 29 раз • Желающих скачать: 0 • Поблагодарили: 13 раз
 Раздают: 0  |  0 KB/s  ]   Качают: 0  |  0 KB/s  ] 
 Полного источника не было 12 дней 
Сообщения
 Добавлено: 2013-08-04 12:28
Модератор релиз-группы
Аватара пользователя
Стаж: 7 лет 8 месяцев
Возраст: 29
Сообщений: 9789
Спасибок: 23730
Лайков: 103
Изображение

Бурлеск
Burlesque


Год выпуска: 2010
Страна: США
Слоган: «It takes a Legend to make a Star.»
Жанр: мюзикл, драма, мелодрама
Продолжительность: 01:58:58
Перевод: Профессиональный (полное дублирование)
Режиссер: Стив Энтин
Сценарий: Стив Энтин
Продюсер: Дональд Де Лайн, Боян Базелли, Дэна Белкастро, Стэйси Крамер, Дэйв Голдберг
Оператор: Боян Базелли
Композитор: Кристоф Бек
В ролях: Кристина Агилера, Шер, Кэм Жиганде, Кристен Белл, Эрик Дэйн, Алан Камминг, Джулианна Хаф, Питер Галлахер, Стэнли Туччи, Диана Агрон, Глинн Тёрмен, Дэвид Уолтон
Бюджет: $55 000 000
Сборы в США: $39 440 655
Сборы в России: $2 583 597
Сборы в мире: $89 519 773
Мировая премьера: 24 ноября 2010
Релиз на DVD: 3 марта 2011, «Columbia/Sony»
Релиз на Blu-ray: 28 апреля 2011, «Columbia/Sony»
Описание: Али - молодая амбициозная девушка из маленького городка с чудесным голосом, совсем недавно потеряла своих родителей. Теперь никому не нужная, она отправляется в большой город Лос-Анджелес, где устраивается на работу у Тесс, хозяйки ночного клуба «Бурлеск». За короткое время она находит друзей, поклонников и любовь всей своей жизни. Но может ли сказка длиться вечно? Ведь немало людей завидует этой прекрасной танцовщице...

Изображение User Rating: 7.417 (29 618)
Изображение User Rating: 6.10 (38 617)
MPAA: PG-13 - Детям до 13 лет просмотр не желателен
Раздача группы: Изображение
Релиз группы: Изображение
Качество: BDRip, 1080p
Формат: MKV
Видео: AVC; 1920x800 (2.40:1); 8028 Kbps; 23,976 fps; 0,218 bit/pixel
Аудио №1: русский; AC3; 640 Kbps; CBR; 6 ch
Аудио №2: украинский; AC3; 640 Kbps; CBR; 6 ch
Аудио №3: AC3; 640 Kbps; CBR; 6 ch
Аудио №4: AC3; 192 Kbps; CBR; 2 ch

Субтитры №1: русские
Субтитры №2: русские
Субтитры №3: русские
Субтитры №4: английские

mediainfo
Общее
Уникальный идентификатор : 178671731655085512593827679490372957643 (0x866AEC7F888BD1CD83C6FEF7473275CB)
Полное имя : D:\TORRENT\Burlesque.2010.1080p.BluRay.Rus.Eng.HDCLUB.mkv
Формат : Matroska
Размер файла : 8,60 Гбайт
Продолжительность : 1 ч. 58 м.
Общий поток : 10,3 Мбит/сек
Дата кодирования : UTC 2012-12-15 17:22:57
Программа кодирования : mkvmerge v4.9.1 ('Ich will') сборка от Jul 11 2011 23:53:15
Библиотека кодирования : libebml v1.2.1 + libmatroska v1.1.1

Видео
Идентификатор : 1
Формат : AVC
Формат/Информация : Advanced Video Codec
Профиль формата : High@L4.1
Параметр CABAC формата : Да
Параметр ReFrames формата : 5 кадров
Идентификатор кодека : V_MPEG4/ISO/AVC
Продолжительность : 1 ч. 58 м.
Битрейт : 8029 Кбит/сек
Ширина : 1920 пикс.
Высота : 800 пикс.
Соотношение сторон : 2,40:1
Частота кадров : 23,976 кадр/сек
Цветовое пространство : YUV
Подвыборка цветности : 4:2:0
Битовая глубина : 8 бит
Тип развёртки : Прогрессивная
Бит/(Пиксели*Кадры) : 0.218
Размер потока : 6,67 Гбайт (78%)
Библиотека кодирования : x264 core 125 r2200 999b753
Настройки программы : cabac=1 / ref=5 / deblock=1:-3:-3 / analyse=0x3:0x113 / me=umh / subme=10 / psy=1 / psy_rd=1.00:0.00 / mixed_ref=1 / me_range=32 / chroma_me=1 / trellis=2 / 8x8dct=1 / cqm=0 / deadzone=21,11 / fast_pskip=0 / chroma_qp_offset=-2 / threads=6 / lookahead_threads=1 / sliced_threads=0 / nr=0 / decimate=1 / interlaced=0 / bluray_compat=0 / constrained_intra=0 / bframes=10 / b_pyramid=2 / b_adapt=2 / b_bias=0 / direct=3 / weightb=1 / open_gop=0 / weightp=2 / keyint=250 / keyint_min=23 / scenecut=40 / intra_refresh=0 / rc_lookahead=40 / rc=crf / mbtree=0 / crf=18.2 / qcomp=0.60 / qpmin=0 / qpmax=51 / qpstep=4 / vbv_maxrate=50000 / vbv_bufsize=62500 / crf_max=0.0 / nal_hrd=none / ip_ratio=1.40 / pb_ratio=1.30 / aq=1:0.80

Аудио #1
Идентификатор : 2
Формат : AC-3
Формат/Информация : Audio Coding 3
Расширение режима : CM (complete main)
Идентификатор кодека : A_AC3
Продолжительность : 1 ч. 58 м.
Вид битрейта : Постоянный
Битрейт : 640 Кбит/сек
Каналы : 6 каналов
Расположение каналов : Front: L C R, Side: L R, LFE
Частота : 48,0 КГц
Битовая глубина : 16 бит
Метод сжатия : С потерями
Размер потока : 545 Мбайт (6%)
Заголовок : Дубляж
Язык : Russian

Аудио #2
Идентификатор : 3
Формат : AC-3
Формат/Информация : Audio Coding 3
Расширение режима : CM (complete main)
Идентификатор кодека : A_AC3
Продолжительность : 1 ч. 58 м.
Вид битрейта : Постоянный
Битрейт : 640 Кбит/сек
Каналы : 6 каналов
Расположение каналов : Front: L C R, Side: L R, LFE
Частота : 48,0 КГц
Битовая глубина : 16 бит
Метод сжатия : С потерями
Размер потока : 545 Мбайт (6%)
Заголовок : Дубляж
Язык : Ukrainian

Аудио #3
Идентификатор : 4
Формат : AC-3
Формат/Информация : Audio Coding 3
Расширение режима : CM (complete main)
Идентификатор кодека : A_AC3
Продолжительность : 1 ч. 58 м.
Вид битрейта : Постоянный
Битрейт : 640 Кбит/сек
Каналы : 6 каналов
Расположение каналов : Front: L C R, Side: L R, LFE
Частота : 48,0 КГц
Битовая глубина : 16 бит
Метод сжатия : С потерями
Размер потока : 545 Мбайт (6%)
Заголовок : Оригинал
Язык : English

Аудио #4
Идентификатор : 5
Формат : AC-3
Формат/Информация : Audio Coding 3
Профиль формата : Dolby Digital
Расширение режима : CM (complete main)
Идентификатор кодека : A_AC3
Продолжительность : 1 ч. 58 м.
Вид битрейта : Постоянный
Битрейт : 192 Кбит/сек
Каналы : 2 канала
Расположение каналов : Front: L R
Частота : 48,0 КГц
Битовая глубина : 16 бит
Метод сжатия : С потерями
Размер потока : 163 Мбайт (2%)
Заголовок : Комментарии
Язык : English

Текст #1
Идентификатор : 6
Формат : UTF-8
Идентификатор кодека : S_TEXT/UTF8
Идентификатор кодека/Информация : UTF-8 Plain Text
Заголовок : Forсed
Язык : Russian

Текст #2
Идентификатор : 7
Формат : UTF-8
Идентификатор кодека : S_TEXT/UTF8
Идентификатор кодека/Информация : UTF-8 Plain Text
Заголовок : Dais
Язык : Russian

Текст #3
Идентификатор : 8
Формат : UTF-8
Идентификатор кодека : S_TEXT/UTF8
Идентификатор кодека/Информация : UTF-8 Plain Text
Заголовок : Notabenoid
Язык : Russian

Текст #4
Идентификатор : 9
Формат : UTF-8
Идентификатор кодека : S_TEXT/UTF8
Идентификатор кодека/Информация : UTF-8 Plain Text
Заголовок : Original
Язык : English

Меню
00:00:00.000 : en:00:00:00.000
00:06:16.960 : en:00:06:16.960
00:15:12.120 : en:00:15:12.120
00:25:06.964 : en:00:25:06.964
00:30:30.662 : en:00:30:30.662
00:37:29.956 : en:00:37:29.956
00:45:00.406 : en:00:45:00.406
00:51:44.101 : en:00:51:44.101
00:58:53.405 : en:00:58:53.405
01:04:45.215 : en:01:04:45.215
01:12:17.124 : en:01:12:17.124
01:20:14.351 : en:01:20:14.351
01:28:28.261 : en:01:28:28.261
01:34:41.134 : en:01:34:41.134
01:41:13.734 : en:01:41:13.734
01:47:21.268 : en:01:47:21.268


Свернуть
"Знаете ли Вы, что..."
  • За роль Никки, которую в конечном итоге получила Кристен Белл, боролись две актрисы Джессика Бил и Линдсей Лохан.
  • Роберт Паттинсон, Келлан Латс и Тэйлор Лотнер боролись за роль Джека, которая в конечном итоге досталось другой звезде «Сумерек» Кэму Жиганде.
  • Огромные буквы, складывающиеся в слово «Бурлеск», которые мы видим в финальном номере фильма («Show me how you Burlesque»), обошлись создателям фильма почти в 400 тысяч долларов.
  • Шер сама разрабатывала эскизы своих нарядов для съемок.
  • Фото маленькой Али с матерью, которое мы неоднократно видим в фильме - на самом деле, реальная фотография семилетней Кристины Агилеры и ее матери.
  • еще 2 факта
Свернуть
Скриншоты

Изображение
Изображение
Изображение
Изображение
Изображение
Изображение
Изображение
Изображение
Свернуть
Не в сети
Профиль  
 Добавлено: 2013-10-21 16:47 (спустя 2 месяца 17 дней)
Стаж: 3 года 8 месяцев
Сообщений: 2
раздайте


Тема поднималась пользователем volkov2009 2013-10-21 16:47.
Не в сети
Профиль  
Начать новую темуОтветить на тему  [ Сообщений: 2 ] 
Вы не можете начинать темы
Вы не можете отвечать на сообщения
Вы не можете редактировать свои сообщения
Вы не можете удалять свои сообщения