Правила форума

  • В этом разделе создание новых тем Запрещено.
  • Для создания новых тем пользуйтесь Корневым разделом DVD и HD фильмы.
Начать новую темуОтветить на тему  [ Сообщений: 7 ] 
Торрент файл
Размер: 13.28 GB • Зарегистрирован: 5 лет 6 месяцев • Статус: Проверено
Скачан: 86 раз • Желающих скачать: 0 • Поблагодарили: 30 раз
 Раздают: 1  |  0 KB/s  ]   Качают: 0  |  0 KB/s  ] 
Сообщения
 Добавлено: 2011-05-10 10:37
Модератор
Аватара пользователя
Стаж: 8 лет 1 месяц
Возраст: 20
Сообщений: 32130
Спасибок: 98561
Лайков: 80
Изображение

Бьютифул / Biutiful


Год выпуска: 2010
Страна: Испания, Мексика

Жанр: драма
Продолжительность: 02:21:36
Перевод: Профессиональный (полное дублирование) [лицензия]

Режиссер: Алехандро Гонсалес Иньярриту
В ролях: Хавьер Бардем, Марисель Альварес, Ханна Бушаиб, Гильермо Эстрелла, Эдуард Фернандес, Шейх Ндиае, Диарьяту Дафф, Чэн Таи Шен, Ло Цзинь Джордж, Чибуиквем Чуквума
Сборы в США: $5 064 737
Сборы в России: $262 587
Сборы в мире: $23 966 113

Мировая премьера: 17 мая 2010
Релиз на DVD: 31 марта 2011, «Вольга»
Описание: Разведенный отец двоих детей Уксбаль - свой человек в теневом мире Барселоны. Для правоохранительных органов он - нарушитель закона; для нелегальных иммигрантов, которым помогает получить работу, - добрый ангел. Узнав, что неизлечимо болен, Уксбаль начинает готовиться к смерти...
Изображение
MPAA: Изображение - Лицам до 17 лет обязательно присутствие взрослого
Качество: BDRip 1080p [CHD]
Формат: Matroska
Видео: 10.6 mb/s, 1908x1040, 23.976 fps
Аудио: Russian: DTS, 755 kb/s (6 ch) / English: DTS, 1510 kb/s (6 ch)
Субтитры: Russian [forced], English
Изображение
MediaInfo
D:\Biutiful.2011.BluRay.1080p.DTS.x264-CHD\Biutiful.2011.BDRip.1080p-CHD.mkv
General
Unique ID : 193304113321478473279610798445343493465 (0x916D049D156870CB85D2A9BEB5AB4D59)
Complete name : D:\Biutiful.2011.BluRay.1080p.DTS.x264-CHD\Biutiful.2011.BDRip.1080p-CHD.mkv
Format : Matroska
File size : 13.3 GiB
Duration : 2h 28mn
Overall bit rate : 12.8 Mbps
Encoded date : UTC 2011-05-09 20:03:06
Writing application : mkvmerge v4.0.0 ('The Stars were mine') сборка от Jun 6 2010 16:18:42
Writing library : libebml v1.0.0 + libmatroska v1.0.0
Video #1
ID : 1
Format : AVC
Format/Info : Advanced Video Codec
Format profile : High@L4.1
Format settings, CABAC : Yes
Format settings, ReFrames : 4 frames
Codec ID : V_MPEG4/ISO/AVC
Duration : 2h 28mn
Bit rate : 10.6 Mbps
Width : 1 908 pixels
Height : 1 040 pixels
Display aspect ratio : 16:9
Frame rate : 23.976 fps
Color space : YUV
Chroma subsampling : 4:2:0
Bit depth : 8 bits
Scan type : Progressive
Bits/(Pixel*Frame) : 0.222
Stream size : 10.7 GiB (80%)
Title : Biutiful.2011.BluRay.1080p.DTS.x264-CHD
Writing library : x264 core 114 r1924 08d04a4
Encoding settings : cabac=1 / ref=4 / deblock=1:-3:-3 / analyse=0x3:0x113 / me=umh / subme=10 / psy=1 / psy_rd=1.05:0.10 / mixed_ref=1 / me_range=48 / chroma_me=1 / trellis=2 / 8x8dct=1 / cqm=2 / deadzone=21,11 / fast_pskip=0 / chroma_qp_offset=-2 / threads=12 / sliced_threads=0 / nr=0 / decimate=1 / interlaced=0 / constrained_intra=0 / bframes=6 / b_pyramid=2 / b_adapt=2 / b_bias=0 / direct=3 / weightb=1 / open_gop=0 / weightp=2 / keyint=250 / keyint_min=23 / scenecut=40 / intra_refresh=0 / rc_lookahead=50 / rc=2pass / mbtree=1 / bitrate=10570 / ratetol=1.0 / qcomp=0.70 / qpmin=1 / qpmax=63 / qpstep=4 / cplxblur=20.0 / qblur=0.5 / vbv_maxrate=40000 / vbv_bufsize=40000 / nal_hrd=none / ip_ratio=1.40 / aq=2:0.70
Language : English
Audio #2
ID : 2
Format : DTS
Format/Info : Digital Theater Systems
Codec ID : A_DTS
Duration : 2h 28mn
Bit rate mode : Constant
Bit rate : 755 Kbps
Channel(s) : 6 channels
Channel positions : Front: L C R, Side: L R, LFE
Sampling rate : 48.0 KHz
Bit depth : 24 bits
Compression mode : Lossy
Stream size : 799 MiB (6%)
Title : RUS.DTS.755.Kbs
Language : Russian
Audio #3
ID : 3
Format : DTS
Format/Info : Digital Theater Systems
Codec ID : A_DTS
Duration : 2h 28mn
Bit rate mode : Constant
Bit rate : 1 510 Kbps
Channel(s) : 6 channels
Channel positions : Front: L C R, Side: L R, LFE
Sampling rate : 48.0 KHz
Bit depth : 24 bits
Compression mode : Lossy
Stream size : 1.56 GiB (12%)
Title : SPA.DTS-CORE.1536Kbs
Language : Spanish
Text #4
ID : 4
Format : UTF-8
Codec ID : S_TEXT/UTF8
Codec ID/Info : UTF-8 Plain Text
Title : Russian
Language : Russian
Свернуть
Скриншоты
Изображение
Изображение
Изображение
Свернуть
Не в сети
Профиль  
 Добавлено: 2011-05-10 15:34 (спустя 4 часа)
Аватара пользователя
Стаж: 6 лет 10 месяцев
Сообщений: 3
Как фильм?
Не в сети
Профиль  
 Добавлено: 2011-05-10 16:26 (спустя 52 минуты)
Аватара пользователя
Стаж: 8 лет 11 месяцев
Сообщений: 512
Спасибок: 39
Лайков: 49

attacknn:

Как фильм?

Как как, ну что ты хочешь от испании и мексики.
Не в сети
Профиль  
 Добавлено: 2011-05-10 16:29 (спустя 2 минуты)
Top-releaser
Аватара пользователя
Стаж: 7 лет 3 месяца
Возраст: 25
Сообщений: 1036
Спасибок: 2694
Лайков: 9
Нормальный фильм.
Не в сети
Профиль  
 Добавлено: 2011-05-12 20:00 (спустя 2 дня 3 часа)
Стаж: 9 лет 1 месяц
Возраст: 37
Сообщений: 134
Спасибок: 121
Лайков: 3
Отличная драма, ощутимо отличается от дебютной Сука-любовь, по атмосфере но не стилистике схожа с 21 грамм. Жалею что на неделю раньше смотрел на двд, блюра не дождался.
Не в сети
Профиль  
 Добавлено: 2011-05-19 21:15 (спустя 7 дней)
Аватара пользователя
Стаж: 8 лет 3 месяца
Сообщений: 67
Shitful...
Тем, кто заботится о состоянии собственной психики, смотреть не рекомендую...
Не в сети
Профиль  
 Добавлено: 2011-05-20 22:08 (спустя 1 день)
Аватара пользователя
Стаж: 6 лет 6 месяцев
Сообщений: 77
Фильмы у него всегда грузят не по-детски.
Не в сети
Профиль  
Начать новую темуОтветить на тему  [ Сообщений: 7 ] 
Вы не можете начинать темы
Вы не можете отвечать на сообщения
Вы не можете редактировать свои сообщения
Вы не можете удалять свои сообщения