Правила форума

  • В этом разделе создание новых тем Запрещено.
  • Для создания новых тем пользуйтесь Корневым разделом DVD и HD фильмы.
Начать новую темуОтветить на тему  [ Сообщений: 4 ] 
Торрент файл
Размер: 5.78 GB • Зарегистрирован: 4 года 10 месяцев • Статус: Проверено
Скачан: 105 раз • Желающих скачать: 0 • Поблагодарили: 20 раз
 Раздают: 0  |  0 KB/s  ]   Качают: 0  |  0 KB/s  ] 
 Полного источника не было 2 года 2 месяца 
Сообщения
 Добавлено: 2012-01-27 06:22
Top-releaser
Аватара пользователя
Стаж: 8 лет 7 месяцев
Сообщений: 1286
Спасибок: 3420
Лайков: 7
Царь скорпионов 3: Книга мертвых / The Scorpion King 3: Battle for Redemption

Изображение
Год выпуска: 2011
Страна: Таиланд
Жанр: фэнтези, боевик, приключения
Продолжительность: 01:45:23
Перевод: Профессиональный (полное дублирование)

Режиссер: Роэль Рейн
Сценарий: Брендан Коулз, Шэйн Кун, Рэндолл МакКормик
Продюсер: Лесли Бельцберг, Патти Джексон, Лиза Гудинг, Эрик Хейберг
Оператор: Роэль Рейн

В ролях: Виктор Уэбстер (Mathayus), Рон Перлман (Horus), Билли Зейн (Talus), Бостин Кристофер (Olaf), Дэйв Батиста (Argomael), Кевин 'Кимбо Слайс' Фергюсон (Zulu Kondo), Johann Helf (Hathor), Селина Ло (Tsukai), Кристал Вирулшанья (Silda), Джеффри Джулиано (Sirius), Дин Александру (Head Assassin), Джозиа Д. Ли (Ninja, озвучка)
Дублёры: Александр Головчанский (Mathayus), Владимир Антоник (Horus), Илья Хвостиков (Talus), Александр Воронов (Olaf)

Описание: С момента триумфального восхождения Матиуса к власти немало изменилось: он потерял трон и любимую. Вновь став воином-наемником, герой намерен защитить свое царство от гнета злого тирана и его армии призраков и вернуть прежнее могущество и славу.

Релиз: Изображение Раздача: Изображение

Изображение

Бюджет: $6 000 000
Мировая премьера: 17 января 2012
Релиз на DVD: 9 февраля 2012, «Двадцатый Век Фокс СНГ»


Качество: BDRip
Формат: Matroska
Видео: AVC; 1280x720 (16:9); 5960 kbps; 23,976 fps; 0,270 bit/pixel
Аудио №1: Russian; AC3; 384 kbps; CBR; 6 channels; 16 bit
Аудио №2: English; DTS; 1509 kbps; CBR; 6 channels; 24 bit

Субтитры: English
Изображение
MediaInfo
Общее
Уникальный идентификатор : 252875652737259574755857535144068598589 (0xBE3E14453A0915A2BA703C762E4B4B3D)
Полное имя : D:\Видео\Cjar.skorpionov.3.2012.D.BDRip.720p.UNIONGANG.TV.mkv
Формат : Matroska
Версия формата : Version 2
Размер файла : 5,78 Гбайт
Продолжительность : 1 ч. 45 м.
Общий поток : 7853 Кбит/сек
Дата кодирования : UTC 2012-01-26 17:50:16
Программа кодирования : mkvmerge v5.0.1 ('Es ist Sommer') built on Nov 6 2011 16:23:40
Библиотека кодирования : libebml v1.2.2 + libmatroska v1.3.0

Видео
Идентификатор : 1
Формат : AVC
Формат/Информация : Advanced Video Codec
Профиль формата : High@L4.1
Параметр CABAC формата : Да
Параметр ReFrames формата : 8 кадров
Идентификатор кодека : V_MPEG4/ISO/AVC
Продолжительность : 1 ч. 45 м.
Битрейт : 5960 Кбит/сек
Ширина : 1280 пикселей
Высота : 720 пикселей
Соотношение сторон : 16:9
Частота кадров : 23,976 кадра/сек
Цветовое пространство : YUV
Субдискретизация насыщенности : 4:2:0
Битовая глубина : 8 бит
Тип развёртки : Прогрессивная
Бит/(Пиксели*Кадры) : 0.270
Размер потока : 4,27 Гбайт (74%)
Библиотека кодирования : x264 core 116 r2074 2641b9e
Настройки программы : cabac=1 / ref=8 / deblock=1:-3:-3 / analyse=0x3:0x113 / me=umh / subme=10 / psy=1 / psy_rd=1.00:0.05 / mixed_ref=1 / me_range=32 / chroma_me=1 / trellis=2 / 8x8dct=1 / cqm=0 / deadzone=21,11 / fast_pskip=0 / chroma_qp_offset=-2 / threads=8 / sliced_threads=0 / nr=0 / decimate=1 / interlaced=0 / bluray_compat=0 / constrained_intra=0 / bframes=5 / b_pyramid=2 / b_adapt=2 / b_bias=0 / direct=3 / weightb=1 / open_gop=0 / weightp=2 / keyint=250 / keyint_min=23 / scenecut=40 / intra_refresh=0 / rc_lookahead=40 / rc=2pass / mbtree=0 / bitrate=5960 / ratetol=1.0 / qcomp=0.70 / qpmin=0 / qpmax=69 / qpstep=4 / cplxblur=20.0 / qblur=0.5 / vbv_maxrate=40000 / vbv_bufsize=30000 / nal_hrd=none / ip_ratio=1.40 / pb_ratio=1.30 / aq=2:0.90
Default : Да
Forced : Нет

Аудио #1
Идентификатор : 2
Формат : AC-3
Формат/Информация : Audio Coding 3
Расширение режима : CM (complete main)
Идентификатор кодека : A_AC3
Продолжительность : 1 ч. 45 м.
Вид битрейта : Постоянный
Битрейт : 384 Кбит/сек
Каналы : 6 каналов
Расположение каналов : Front: L C R, Side: L R, LFE
Частота : 48,0 КГц
Битовая глубина : 16 бит
Метод сжатия : С потерями
Размер потока : 289 Мбайт (5%)
Язык : Russian
Default : Да
Forced : Нет

Аудио #2
Идентификатор : 3
Формат : DTS
Формат/Информация : Digital Theater Systems
Идентификатор кодека : A_DTS
Продолжительность : 1 ч. 45 м.
Вид битрейта : Постоянный
Битрейт : 1510 Кбит/сек
Каналы : 6 каналов
Расположение каналов : Front: L C R, Side: L R, LFE
Частота : 48,0 КГц
Битовая глубина : 24 бит
Метод сжатия : С потерями
Размер потока : 1,11 Гбайт (19%)
Язык : English
Default : Нет
Forced : Нет

Текст
Идентификатор : 4
Формат : UTF-8
Идентификатор кодека : S_TEXT/UTF8
Идентификатор кодека/Информация : UTF-8 Plain Text
Язык : English
Default : Да
Forced : Нет
Свернуть


Скриншоты

Изображение

Изображение

Изображение

Изображение

Свернуть
Не в сети
Профиль  
 Добавлено: 2012-01-27 19:04 (спустя 12 часов)
Стаж: 6 лет 6 месяцев
Сообщений: 2
Как фильм? кто смотрел
Не в сети
Профиль  
 Добавлено: 2012-01-28 16:01 (спустя 20 часов)
Аватара пользователя
Стаж: 4 года 11 месяцев
Сообщений: 67
фильм мягко говоря отстойный-с первой частью рядом невалялся! скучный, скудный мир! массовка ущербная! только ради билли зейна!
Не в сети
Профиль  
 Добавлено: 2013-07-11 20:55 (спустя 1 год 5 месяцев)
Аватара пользователя
Стаж: 5 лет 8 месяцев
Сообщений: 17
Мда... 5,78 ГБ на скорости 2КБ/с - это нечто...
Не в сети
Профиль  
Начать новую темуОтветить на тему  [ Сообщений: 4 ] 
Вы не можете начинать темы
Вы не можете отвечать на сообщения
Вы не можете редактировать свои сообщения
Вы не можете удалять свои сообщения