Правила форума

  • В этом разделе создание новых тем Запрещено.
  • Для создания новых тем пользуйтесь Корневым разделом DVD и HD фильмы.
Начать новую темуОтветить на тему  [ Сообщений: 4 ] 
Торрент файл
Размер: 4.69 GB • Зарегистрирован: 4 года 11 месяцев • Статус: T Временный релиз
Скачан: 53 раза • Желающих скачать: 0 • Поблагодарили: 3 раза
 Раздают: 0  |  0 KB/s  ]   Качают: 0  |  0 KB/s  ] 
 Полного источника не было 3 года 2 месяца 
Сообщения
 Добавлено: 2011-12-28 19:26
Top-releaser
Стаж: 7 лет 3 месяца
Возраст: 33
Сообщений: 409
Спасибок: 6402
Лайков: 6
Изображение
Царь скорпионов: Книга мертвых / The Scorpion King 3: Battle for Redemption

Год выпуска: 2012
Страна: Таиланд
Жанр: фэнтези, боевик, приключения
Продолжительность: 01:45:12
Перевод: Любительский (одноголосый)

Режиссер: Роэль Рейн / Roel Rein
Сценарий: Брендан Коулз / Brendan Cowles, Шэйн Кун / Shane Kuhn, Рэндолл МакКормик / Randall McCormick
Продюсер: Лесли Бельцберг / Leslie Belzberg, Патти Джексон / Patti Jackson, Лиза Гудинг / Lisa Gooding, Эрик Хейберг / Erik Heiberg
Оператор: Роэль Рейн / Roel Rein
Композитор: Тревор Моррис / Trevor Morris

В ролях: Виктор Уэбстер (Mathayus), Рон Перлман (Horus), Билли Зейн (Talus), Бостин Кристофер (Olaf), Дэйв Батиста (Argomael), Кевин 'Кимбо Слайс' Фергюсон (Zulu Kondo), Johann Helf (Hathor), Селина Ло (Tsukai), Кристал Вирулшанья (Silda), Джеффри Джулиано (Sirius), Дин Александру (Head Assassin), Джозиа Д. Ли (Ninja, озвучка)

Описание: Картина является продолжением второй части и расскажет нам о дальнейших похождения Матиуса: о его подвигах и его доблести.

Рейтинг
Изображение
MPAA: Изображение

Качество: BDRip 720p
Формат: MKV
Видео: AVC; 1280x720 (16:9); 4439 Kbps; 23,976 fps; 0,201 bpp
Аудио 1: Russian; AC3; 448 Kbps; CBR; 6 ch; 16 bit
Аудио 2: English; DTS; 1509 Kbps; CBR; 6 ch; 24 bit
Субтитры: English, English [SDH]

релиз группы Изображение Семпл
Mediainfo
General
Unique ID : 178785033215731758698697050191960041729 (0x8680BEB247CE65398BB564DA41CD6901)
Complete name : D:\uTorrent\Cjar.skorpionov.3.2012.L1.BDRip.720p.mkv
Format : Matroska
Format version : Version 2
File size : 4.69 GiB
Duration : 1h 45mn
Overall bit rate : 6 377 Kbps
Movie name : UNIONGANG.TV -TVB-
Encoded date : UTC 2011-12-28 14:16:48
Writing application : mkvmerge v5.0.1 ('Es ist Sommer') built on Oct 9 2011 11:55:43
Writing library : libebml v1.2.2 + libmatroska v1.3.0
Video #1
ID : 1
Format : AVC
Format/Info : Advanced Video Codec
Format profile : High@L4.1
Format settings, CABAC : Yes
Format settings, ReFrames : 9 frames
Codec ID : V_MPEG4/ISO/AVC
Duration : 1h 45mn
Bit rate : 4 439 Kbps
Width : 1 280 pixels
Height : 720 pixels
Display aspect ratio : 16:9
Frame rate : 23.976 fps
Color space : YUV
Chroma subsampling : 4:2:0
Bit depth : 8 bits
Scan type : Progressive
Bits/(Pixel*Frame) : 0.201
Stream size : 3.15 GiB (67%)
Writing library : x264 core 120 r2120 0c7dab9
Encoding settings : cabac=1 / ref=9 / deblock=1:-3:-3 / analyse=0x3:0x133 / me=umh / subme=11 / psy=1 / psy_rd=0.95:0.00 / mixed_ref=1 / me_range=32 / chroma_me=1 / trellis=2 / 8x8dct=1 / cqm=0 / deadzone=21,11 / fast_pskip=0 / chroma_qp_offset=-2 / threads=12 / sliced_threads=0 / nr=0 / decimate=0 / interlaced=0 / bluray_compat=0 / constrained_intra=0 / bframes=7 / b_pyramid=2 / b_adapt=2 / b_bias=0 / direct=3 / weightb=1 / open_gop=0 / weightp=2 / keyint=240 / keyint_min=24 / scenecut=40 / intra_refresh=0 / rc=2pass / mbtree=0 / bitrate=4439 / ratetol=1.0 / qcomp=0.75 / qpmin=0 / qpmax=69 / qpstep=4 / cplxblur=20.0 / qblur=0.5 / ip_ratio=1.40 / pb_ratio=1.30 / aq=1:0.90
Language : English
Audio #2
ID : 2
Format : AC-3
Format/Info : Audio Coding 3
Mode extension : CM (complete main)
Codec ID : A_AC3
Duration : 1h 45mn
Bit rate mode : Constant
Bit rate : 448 Kbps
Channel(s) : 6 channels
Channel positions : Front: L C R, Side: L R, LFE
Sampling rate : 48.0 KHz
Bit depth : 16 bits
Compression mode : Lossy
Stream size : 337 MiB (7%)
Title : L1
Language : Russian
Audio #3
ID : 3
Format : DTS
Format/Info : Digital Theater Systems
Codec ID : A_DTS
Duration : 1h 45mn
Bit rate mode : Constant
Bit rate : 1 510 Kbps
Channel(s) : 6 channels
Channel positions : Front: L C R, Side: L R, LFE
Sampling rate : 48.0 KHz
Bit depth : 24 bits
Compression mode : Lossy
Delay relative to video : 2ms
Stream size : 1.11 GiB (24%)
Language : English
Text #4
ID : 4
Format : UTF-8
Codec ID : S_TEXT/UTF8
Codec ID/Info : UTF-8 Plain Text
Language : English
Text #5
ID : 5
Format : UTF-8
Codec ID : S_TEXT/UTF8
Codec ID/Info : UTF-8 Plain Text
Title : SDH
Language : English
Свернуть
Скриншоты
Изображение

Изображение

Изображение
Свернуть

Не в сети
Профиль  
 Добавлено: 2011-12-28 19:59 (спустя 32 минуты)
Модератор релиз-группы
Аватара пользователя
Стаж: 9 лет 1 месяц
Возраст: 97
Сообщений: 11659
Спасибок: 6531
Лайков: 269
Год выпуска: 2012
я попал в будущее :-D
как так могут писать ????
_________________
Изображение
Не в сети
Профиль  
 Добавлено: 2011-12-28 20:06 (спустя 6 минут)
Top-releaser
Стаж: 7 лет 3 месяца
Возраст: 33
Сообщений: 409
Спасибок: 6402
Лайков: 6
премьера (мир) 17 января 2012 :ne_znayu:
Не в сети
Профиль  
 Добавлено: 2011-12-28 20:27 (спустя 21 минута)
Аватара пользователя
Стаж: 7 лет 11 месяцев
Сообщений: 994
Лайков: 74
а что, есть и 2я часть еще разве???
Не в сети
Профиль  
Начать новую темуОтветить на тему  [ Сообщений: 4 ] 
Вы не можете начинать темы
Вы не можете отвечать на сообщения
Вы не можете редактировать свои сообщения
Вы не можете удалять свои сообщения