Правила форума

  • В этом разделе создание новых тем Запрещено.
  • Для создания новых тем пользуйтесь Корневым разделом DVD и HD фильмы.
Начать новую темуОтветить на тему  [ Сообщений: 3 ] 
Торрент файл
Размер: 9.36 GB • Зарегистрирован: 4 года 11 месяцев • Статус: T Временный релиз
Скачан: 75 раз • Желающих скачать: 0 • Поблагодарили: 20 раз
 Раздают: 0  |  0 KB/s  ]   Качают: 0  |  0 KB/s  ] 
 Полного источника не было 3 года 1 месяц 
Сообщения
 Добавлено: 2011-12-29 10:05
Модератор релиз-группы
Аватара пользователя
Стаж: 9 лет 1 месяц
Возраст: 97
Сообщений: 11660
Спасибок: 6534
Лайков: 269
Царь скорпионов: Книга мертвых / The Scorpion King 3: Battle for Redemption

Изображение



Год выпуска: 2011
Страна: Таиланд, Universal Pictures
Жанр: Фэнтези, боевик, приключения
Продолжительность: 01:45:37
Перевод: Любительский одноголосый
Субтитры: Английские

Режиссер: Роэль Рейн

В ролях: Виктор Уэбстер, Рон Перлман, Билли Зейн, Бостин Кристофер, Дэйв Батиста, Кевин «Кимбо Слайс» Фергюсон, Селина Ло, Кристал Вирулшанья, Джеффри Джулиано

Описание: Картина является продолжением второй части и расскажет нам о дальнейших похождения Матиуса: о его подвигах и его доблести.

Изображение
Качество: BDRip (1080p)
Формат: mkv
Видео: MPEG-4 AVC, 10.8 Мбит/с, 1920x1080
Аудио: Русский (AC3, 6 ch, 448 Кбит/с)
Аудио: Aнглийский (DTS, 6 ch, 1510 Кбит/с)
Субтитры: Английские
скриншоты
Изображение

Изображение

Изображение

Изображение
Свернуть
Mi
Format : Matroska
Format version : Version 2
File size : 9.36 GiB
Duration : 1h 45mn
Overall bit rate : 12.7 Mbps
Movie name : UNIONGANG.TV -TVB-
Encoded date : UTC 2011-12-28 19:24:52
Writing application : mkvmerge v5.0.1 ('Es ist Sommer') built on Oct 9 2011 11:55:43
Writing library : libebml v1.2.2 + libmatroska v1.3.0

Video
ID : 1
Format : AVC
Format/Info : Advanced Video Codec
Format profile : High@L4.1
Format settings, CABAC : Yes
Format settings, ReFrames : 4 frames
Codec ID : V_MPEG4/ISO/AVC
Duration : 1h 45mn
Bit rate : 10.8 Mbps
Width : 1 920 pixels
Height : 1 080 pixels
Display aspect ratio : 16:9
Frame rate : 23.976 fps
Color space : YUV
Chroma subsampling : 4:2:0
Bit depth : 8 bits
Scan type : Progressive
Bits/(Pixel*Frame) : 0.217
Stream size : 7.73 GiB (83%)
Title : CHD
Writing library : x264 core 119 r2106 07efeb4
Encoding settings : cabac=1 / ref=4 / deblock=1:-3:-3 / analyse=0x3:0x113 / me=umh / subme=10 / psy=1 / psy_rd=1.05:0.10 / mixed_ref=1 / me_range=48 / chroma_me=1 / trellis=2 / 8x8dct=1 / cqm=1 / deadzone=21,11 / fast_pskip=0 / chroma_qp_offset=-2 / threads=12 / sliced_threads=0 / nr=0 / decimate=1 / interlaced=0 / bluray_compat=0 / constrained_intra=0 / bframes=6 / b_pyramid=2 / b_adapt=2 / b_bias=0 / direct=3 / weightb=1 / open_gop=0 / weightp=2 / keyint=250 / keyint_min=23 / scenecut=40 / intra_refresh=0 / rc_lookahead=60 / rc=2pass / mbtree=1 / bitrate=10765 / ratetol=2.0 / qcomp=0.70 / qpmin=3 / qpmax=69 / qpstep=4 / cplxblur=20.0 / qblur=0.5 / vbv_maxrate=40000 / vbv_bufsize=30000 / nal_hrd=none / ip_ratio=1.40 / aq=2:1.00
Language : English

Audio #1
ID : 2
Format : AC-3
Format/Info : Audio Coding 3
Mode extension : CM (complete main)
Codec ID : A_AC3
Duration : 1h 45mn
Bit rate mode : Constant
Bit rate : 448 Kbps
Channel(s) : 6 channels
Channel positions : Front: L C R, Side: L R, LFE
Sampling rate : 48.0 KHz
Bit depth : 16 bits
Compression mode : Lossy
Stream size : 338 MiB (4%)
Title : L1
Language : Russian

Audio #2
ID : 3
Format : DTS
Format/Info : Digital Theater Systems
Codec ID : A_DTS
Duration : 1h 45mn
Bit rate mode : Constant
Bit rate : 1 510 Kbps
Channel(s) : 6 channels
Channel positions : Front: L C R, Side: L R, LFE
Sampling rate : 48.0 KHz
Bit depth : 24 bits
Compression mode : Lossy
Delay relative to video : 2ms
Stream size : 1.11 GiB (12%)
Language : English

Text #1
ID : 4
Format : UTF-8
Codec ID : S_TEXT/UTF8
Codec ID/Info : UTF-8 Plain Text
Language : English

Text #2
ID : 5
Format : UTF-8
Codec ID : S_TEXT/UTF8
Codec ID/Info : UTF-8 Plain Text
Title : SDH
Language : English

Свернуть
_________________
Изображение
Не в сети
Профиль  
 Добавлено: 2011-12-29 10:54 (спустя 49 минут)
Аватара пользователя
Стаж: 5 лет 8 месяцев
Сообщений: 21
смотрел кто? :)
Не в сети
Профиль  
 Добавлено: 2011-12-29 18:03 (спустя 7 часов)
Стаж: 8 лет 8 месяцев
Сообщений: 15
Спасибок: 143
Дата выхода 17.01.12?
Это что?
Не в сети
Профиль  
Начать новую темуОтветить на тему  [ Сообщений: 3 ] 
Вы не можете начинать темы
Вы не можете отвечать на сообщения
Вы не можете редактировать свои сообщения
Вы не можете удалять свои сообщения