Правила форума

  • В этом разделе создание новых тем Запрещено.
  • Для создания новых тем пользуйтесь Корневым разделом DVD и HD фильмы.
Начать новую темуОтветить на тему  [ Сообщений: 2 ] 
Торрент файл
Размер: 7.03 GB • Зарегистрирован: 5 лет 4 месяца • Статус: Проверено
Скачан: 34 раза • Желающих скачать: 0 • Поблагодарили: 8 раз
 Раздают: 0  |  0 KB/s  ]   Качают: 0  |  0 KB/s  ] 
 Полного источника не было 14 дней 
Сообщения
 Добавлено: 2011-07-23 21:06
Top-seeder
Аватара пользователя
Стаж: 9 лет
Сообщений: 1399
Спасибок: 28653
Лайков: 8
Царь скорпионов / The Scorpion King

Изображение


Перевод: Профессиональный (полное дублирование)
Субтитры: Русские, английские
Формат: BDRip, MKV, H.264, AC3/DTS
Страна: США, Германия, Бельгия
Режиссер: Чак Рассел
Жанр: Фэнтези, боевик, триллер, мелодрама, приключения
Продолжительность: 01:31:29
Год выпуска: 2002

В ролях: Дуэйн Джонсон, Стивен Брэнд, Майкл Кларк Дункан, Келли Ху, Бернард Хилл, Грант Хеслов, Питер Фачинелли, Ральф Мёллер, Брэнском Ричмонд, Роджер Рис

Описание: Эта история произошла 5 тыс. лет назад в Египте, еще задолго до постройки первых пирамид. Злой правитель и могущественный воин Мемнон решил поработить все народы, живущие в пустыне. Со своей многочисленной армией Мемнон выигрывает одно сражение за другим. Удача сопутствует жестокому злодею, потому что все злодеяния Мемнон совершает, опираясь на предсказания своего провидца. Осталась только горстка непокорных народов в пустыне, которые еще противостоят власти Мемнона.
Немногие оставшиеся племена нанимают воина акадца Метаеса — человека убивающего за деньги — чтобы тот убил провидца Мемнона. Оказавшись во вражеском лагере, Метаес к своему удивлению обнаруживает, что ясновидец — это красивая молодая женщина Кассандра. Он оставляет ее в живых и берет с собой в пустыню, чтобы выманить Мемнона из его города-крепости Гоморры. Единственное, что может успокоить теперь Метаеса — это смерть Мемнона…

Видео: 1280x544p (2,35:1), 23,976 fps, AVC MPEG-4(H.264), High@L4.1, ~6797 kbps avg, 0.407 bit/pixel
Аудио#1: Русский 48 kHz, AC3, 6 ch, ~384 kbps avg [Профессиональный (полное дублирование)]
Аудио#2: Русский 48 kHz, AC3, 2 ch, ~192 kbps avg [Профессиональный (многоголосый закадровый)(Премьер Видео Фильм)]
Аудио#3: Русский 48 kHz, AC3, 6 ch, ~384 kbps avg [Профессиональный (двухголосый)(Гланц и Королева)]
Аудио#4: Русский 48 kHz, DTS, 6 ch, ~1510 kbps avg [Авторский (одноголосый)(Юрий Живов)]
Аудио#5: Английский 48 kHz, DTS, 6 ch, ~1510 kbps avg [Оригинал]

Слоган: «Воин. Легенда. Король»

Знаете ли вы, что...
* Эта картина представляет собой приквел ленты «Мумия Возвращается», которая, в свою очередь, стала сиквелом ремейка фильма, снятого 70 лет назад («Мумия»).

* 29-летний чемпион по рестлингу Дуэйн «Скала» Джонсон заработал за роль Матэюса - $5.5 млн и вошел в Книгу рекордов Гиннесса как актер, получивший самый большой гонорар за свою первую главную роль в кино.

* Роль главного злодея создавалась с прицелом на Чоу Юнь-фата, однако его менеджер Теренс Чанг отклонил это предложение, заявив, что его клиент никогда не играет отрицательных персонажей, чтобы не разочаровывать своих поклонников.

* В сцене схватки Матэюса с Бальтазаром Майкл Кларк Дункан чересчур сильно наклонился вперед, из-за чего Джонсон попал локтем ему в челюсть. От сильнейшего удара огромный Дункан навзничь упал на землю.

* Винс МакМахон стал исполнительным продюсером фильма только потому, что ему принадлежат права на коммерческое использование прозвища Джонсона «Скала».

* В картине звучит фрагмент мелодии, под которую Джонсон обычно выходил на ринг во время соревнований по рестлингу.

* Когда фильм был уже смонтирован, оказалось, что его продолжительность всего 70 минут. Для того чтобы увеличить хронометраж, пришлось снять несколько дополнительных сцен.
Свернуть
Показать скриншоты
ИзображениеИзображениеИзображение
Свернуть
MediaInfo
Общее
Уникальный идентификатор : 196350486275568331409577367198421831374 (0x93B7BA6580BD7745BFD72791A6894ECE)
Полное имя : D:\Закачки\Царь скорпионов.mkv
Формат : Matroska
Размер файла : 7,03 Гбайт
Продолжительность : 1 ч. 31 м.
Общий поток : 11,0 Мбит/сек
Дата кодирования : UTC 2011-07-20 14:19:15
Программа кодирования : mkvmerge v4.8.0 ('I Got The...') built on May 24 2011 03:12:58
Библиотека кодирования : libebml v1.2.0 + libmatroska v1.1.0

Видео
Идентификатор : 1
Формат : AVC
Формат/Информация : Advanced Video Codec
Профиль формата : High@L4.1
Параметр CABAC формата : Да
Параметр ReFrames формата : 9 кадров
Режим смешивания : Header stripping
Идентификатор кодека : V_MPEG4/ISO/AVC
Продолжительность : 1 ч. 31 м.
Битрейт : 6797 Кбит/сек
Ширина : 1280 пикс.
Высота : 544 пикс.
Соотношение сторон : 2,35:1
Частота кадров : 23,976 кадр/сек
Цветовое пространство : YUV
Подвыборка цветности : 4:2:0
Битовая глубина : 8 бит
Тип развёртки : Прогрессивная
Бит/(Пиксели*Кадры) : 0.407
Размер потока : 4,34 Гбайт (62%)
Заголовок : Царь скорпионов / The Scorpion King (2002) BDRip 720p by HQCLUB & BlueBird
Библиотека кодирования : x264 core 115 r1995 c1e60b9
Настройки программы : cabac=1 / ref=9 / deblock=1:-3:-3 / analyse=0x3:0x113 / me=umh / subme=10 / psy=1 / psy_rd=1.05:0.05 / mixed_ref=1 / me_range=32 / chroma_me=1 / trellis=2 / 8x8dct=1 / cqm=0 / deadzone=21,11 / fast_pskip=1 / chroma_qp_offset=-5 / threads=9 / sliced_threads=0 / nr=0 / decimate=1 / interlaced=0 / bluray_compat=0 / constrained_intra=0 / bframes=9 / b_pyramid=2 / b_adapt=2 / b_bias=0 / direct=1 / weightb=1 / open_gop=0 / weightp=2 / keyint=250 / keyint_min=23 / scenecut=40 / intra_refresh=0 / rc_lookahead=40 / rc=crf / mbtree=0 / crf=18.0 / qcomp=0.60 / qpmin=10 / qpmax=51 / qpstep=4 / vbv_maxrate=62500 / vbv_bufsize=50000 / crf_max=0.0 / nal_hrd=none / ip_ratio=1.40 / pb_ratio=1.30 / aq=1:0.90
Язык : English

Аудио #1
Идентификатор : 2
Формат : AC-3
Формат/Информация : Audio Coding 3
Расширение режима : CM (complete main)
Режим смешивания : Header stripping
Идентификатор кодека : A_AC3
Продолжительность : 1 ч. 31 м.
Вид битрейта : Постоянный
Битрейт : 384 Кбит/сек
Каналы : 6 каналов
Расположение каналов : Front: L C R, Side: L R, LFE
Частота : 48,0 КГц
Битовая глубина : 16 бит
Метод сжатия : С потерями
Размер потока : 251 Мбайт (3%)
Заголовок : Дубляж AC3 5.1 @ 384 kbps
Язык : Russian

Аудио #2
Идентификатор : 3
Формат : AC-3
Формат/Информация : Audio Coding 3
Расширение режима : CM (complete main)
Режим смешивания : Header stripping
Идентификатор кодека : A_AC3
Продолжительность : 1 ч. 31 м.
Вид битрейта : Постоянный
Битрейт : 192 Кбит/сек
Каналы : 2 канала
Расположение каналов : Front: L R
Частота : 48,0 КГц
Битовая глубина : 16 бит
Метод сжатия : С потерями
Размер потока : 126 Мбайт (2%)
Заголовок : Многоголосый (Премьер Видео Фильм) AC3 2.0 @ 192 kbps
Язык : Russian

Аудио #3
Идентификатор : 4
Формат : AC-3
Формат/Информация : Audio Coding 3
Расширение режима : CM (complete main)
Режим смешивания : Header stripping
Идентификатор кодека : A_AC3
Продолжительность : 1 ч. 31 м.
Вид битрейта : Постоянный
Битрейт : 384 Кбит/сек
Каналы : 6 каналов
Расположение каналов : Front: L C R, Side: L R, LFE
Частота : 48,0 КГц
Битовая глубина : 16 бит
Метод сжатия : С потерями
Размер потока : 251 Мбайт (3%)
Заголовок : Двухголосый (Гланц и Королева) AC3 5.1 @ 384 kbps
Язык : Russian

Аудио #4
Идентификатор : 5
Формат : DTS
Формат/Информация : Digital Theater Systems
Режим смешивания : Header stripping
Идентификатор кодека : A_DTS
Продолжительность : 1 ч. 31 м.
Вид битрейта : Постоянный
Битрейт : 1510 Кбит/сек
Каналы : 6 каналов
Расположение каналов : Front: L C R, Side: L R, LFE
Частота : 48,0 КГц
Битовая глубина : 24 бит
Метод сжатия : С потерями
Размер потока : 988 Мбайт (14%)
Заголовок : Авторский (Юрий Живов) DTS 5.1 @ 1536 kbps
Язык : Russian

Аудио #5
Идентификатор : 6
Формат : DTS
Формат/Информация : Digital Theater Systems
Режим смешивания : Header stripping
Идентификатор кодека : A_DTS
Продолжительность : 1 ч. 31 м.
Вид битрейта : Постоянный
Битрейт : 1510 Кбит/сек
Каналы : 6 каналов
Расположение каналов : Front: L C R, Side: L R, LFE
Частота : 48,0 КГц
Битовая глубина : 24 бит
Метод сжатия : С потерями
Размер потока : 988 Мбайт (14%)
Заголовок : Оригинал DTS 5.1 @ 1536 kbps
Язык : English

Текст #1
Идентификатор : 7
Формат : UTF-8
Идентификатор кодека : S_TEXT/UTF8
Идентификатор кодека/Информация : UTF-8 Plain Text
Заголовок : Русские
Язык : Russian

Текст #2
Идентификатор : 8
Формат : UTF-8
Идентификатор кодека : S_TEXT/UTF8
Идентификатор кодека/Информация : UTF-8 Plain Text
Заголовок : Английские
Язык : English

Меню
00:00:00.000 : en:00:00:00.000
00:03:48.019 : en:00:03:48.019
00:05:04.012 : en:00:05:04.012
00:08:33.179 : en:00:08:33.179
00:11:34.444 : en:00:11:34.444
00:15:59.542 : en:00:15:59.542
00:21:34.710 : en:00:21:34.710
00:27:40.158 : en:00:27:40.158
00:29:49.496 : en:00:29:49.496
00:32:52.929 : en:00:32:52.929
00:39:11.766 : en:00:39:11.766
00:45:16.005 : en:00:45:16.005
00:51:00.516 : en:00:51:00.516
00:56:12.119 : en:00:56:12.119
01:03:42.110 : en:01:03:42.110
01:06:50.632 : en:01:06:50.632
01:11:35.875 : en:01:11:35.875
01:19:41.151 : en:01:19:41.151
01:21:43.357 : en:01:21:43.357
01:24:42.411 : en:01:24:42.411

Свернуть
Не в сети
Профиль  
 Добавлено: 2013-07-11 21:48 (спустя 1 год 11 месяцев)
Аватара пользователя
Стаж: 5 лет 8 месяцев
Сообщений: 17
А где скорость-то?..
Не в сети
Профиль  
Начать новую темуОтветить на тему  [ Сообщений: 2 ] 
Вы не можете начинать темы
Вы не можете отвечать на сообщения
Вы не можете редактировать свои сообщения
Вы не можете удалять свои сообщения
cron