Правила форума

  • В этом разделе создание новых тем Запрещено.
  • Для создания новых тем пользуйтесь Корневым разделом DVD и HD фильмы.
Начать новую темуОтветить на тему  [ Сообщений: 4 ] 
Торрент файл
Размер: 7.63 GB • Зарегистрирован: 3 года 8 месяцев • Статус: Проверено
Скачан: 106 раз • Желающих скачать: 0 • Поблагодарили: 31 раз
 Раздают: 0  |  0 KB/s  ]   Качают: 0  |  0 KB/s  ] 
 Полного источника не было 4 часа 
Сообщения
 Добавлено: 2013-03-29 15:40
Top-releaser
Аватара пользователя
Стаж: 8 лет 9 месяцев
Сообщений: 479
Спасибок: 20190
Лайков: 16
Изображение

Изображение

Zero Dark Thirty


«Десять лет женщина провела в поисках самого опасного в мире человека»

Год выпуска: 2012
Страна: Изображение США; Annapurna Pictures
Жанр: Триллер, драма, история
Продолжительность: 02:36:59
Перевод: Профессиональный (дублированный) [Лицензия], Оригинал
Субтитры: Русские, английские

Режиссёр: Кэтрин Бигелоу / Kathryn Bigelow

В ролях: Джессика Честейн, Джоэл Эдгертон, Эдгар Рамирес, Марк Стронг, Кайл Чандлер, Дженнифер Или, Джеймс Гандольфини, Стивен Диллэйн, Хэролд Перрино, Джейсон Кларк

Описание: История одной из операций спецслужб США по поимке «террориста N1» Усамы Бен Ладена.


Качество: BDRip 720p R5
Формат: MKV

Видео: AVC at 5000 Кбит/сек, 1280 x 690 (1.855) at 23.976 fps

Аудио 1: AC3 Dolby Digital 448 Кбит/сек, 6 канала(ов), 48,0 КГц [Дубляж]
Аудио 2: DTS at 1510 Кбит/сек, 6 канала(ов), 48,0 КГц [Оригинал]
Раздача: Изображение


Изображение
MediaInfo

Общее
Уникальный идентификатор : 206179593580450845479784839581742045656 (0x9B1CBECD47939F72ADDB45E5E7A299D8)
Полное имя : C:\Users\Домашний\Desktop\Cel.nomer.odin.2012.BDRip.720p.[nntt].mkv
Формат : Matroska
Версия формата : Version 2
Размер файла : 7,63 Гбайт
Продолжительность : 2 ч. 36 м.
Общий поток : 6957 Кбит/сек
Дата кодирования : UTC 2013-03-28 19:12:09
Программа кодирования : mkvmerge v5.2.0 ('I can't explain') built on Dec 18 2011 18:12:03
Библиотека кодирования : libebml v1.2.3 + libmatroska v1.3.0

Видео
Идентификатор : 1
Формат : AVC
Формат/Информация : Advanced Video Codec
Профиль формата : High@L4.1
Параметр CABAC формата : Да
Параметр ReFrames формата : 9 кадров
Идентификатор кодека : V_MPEG4/ISO/AVC
Продолжительность : 2 ч. 36 м.
Битрейт : 5000 Кбит/сек
Ширина : 1280 пикселей
Высота : 690 пикселей
Соотношение сторон : 1,85:1
Режим частоты кадров : Постоянный
Частота кадров : 23,976 кадра/сек
Цветовое пространство : YUV
Субдискретизация насыщенности : 4:2:0
Битовая глубина : 8 бит
Тип развёртки : Прогрессивная
Бит/(Пиксели*Кадры) : 0.236
Размер потока : 5,33 Гбайт (70%)
Заголовок : Zero.Dark.Thirty.2012.Bluray.720p.DTS.x264-CHD
Библиотека кодирования : x264 core 129 r2245 bc13772
Настройки программы : cabac=1 / ref=9 / deblock=1:-3:-4 / analyse=0x3:0x133 / me=umh / subme=11 / psy=1 / psy_rd=1.15:0.20 / mixed_ref=1 / me_range=32 / chroma_me=1 / trellis=2 / 8x8dct=1 / cqm=0 / deadzone=21,11 / fast_pskip=0 / chroma_qp_offset=-5 / threads=12 / lookahead_threads=2 / sliced_threads=0 / nr=0 / decimate=1 / interlaced=0 / bluray_compat=0 / constrained_intra=0 / bframes=8 / b_pyramid=2 / b_adapt=2 / b_bias=0 / direct=3 / weightb=1 / open_gop=0 / weightp=2 / keyint=250 / keyint_min=23 / scenecut=40 / intra_refresh=0 / rc=2pass / mbtree=0 / bitrate=5000 / ratetol=1.0 / qcomp=0.70 / qpmin=0 / qpmax=69 / qpstep=4 / cplxblur=20.0 / qblur=0.5 / ip_ratio=1.40 / pb_ratio=1.30 / aq=2:1.00
Язык : English
Default : Да
Forced : Да

Аудио #1
Идентификатор : 2
Формат : AC-3
Формат/Информация : Audio Coding 3
Расширение режима : CM (complete main)
Параметр Endianness формата : Big
Идентификатор кодека : A_AC3
Продолжительность : 2 ч. 36 м.
Вид битрейта : Постоянный
Битрейт : 448 Кбит/сек
Каналы : 6 каналов
Расположение каналов : Front: L C R, Side: L R, LFE
Частота : 48,0 КГц
Битовая глубина : 16 бит
Метод сжатия : С потерями
Размер потока : 503 Мбайт (6%)
Заголовок : DD 5.1 @ 448 kbps - Dub, R5
Язык : Russian
Default : Да
Forced : Да

Аудио #2
Идентификатор : 3
Формат : DTS
Формат/Информация : Digital Theater Systems
Режим : 16
Параметр Endianness формата : Big
Идентификатор кодека : A_DTS
Продолжительность : 2 ч. 36 м.
Вид битрейта : Постоянный
Битрейт : 1509 Кбит/сек
Каналы : 6 каналов
Расположение каналов : Front: L C R, Side: L R, LFE
Частота : 48,0 КГц
Битовая глубина : 24 бит
Метод сжатия : С потерями
Размер потока : 1,65 Гбайт (22%)
Заголовок : DTS 5.1 @ 1536 kbps
Язык : English
Default : Нет
Forced : Нет

Текст #1
Идентификатор : 4
Формат : UTF-8
Идентификатор кодека : S_TEXT/UTF8
Идентификатор кодека/Информация : UTF-8 Plain Text
Язык : Russian
Default : Нет
Forced : Нет

Текст #2
Идентификатор : 5
Формат : UTF-8
Идентификатор кодека : S_TEXT/UTF8
Идентификатор кодека/Информация : UTF-8 Plain Text
Заголовок : Forced
Язык : English
Default : Нет
Forced : Нет

Текст #3
Идентификатор : 6
Формат : UTF-8
Идентификатор кодека : S_TEXT/UTF8
Идентификатор кодека/Информация : UTF-8 Plain Text
Язык : English
Default : Нет
Forced : Нет

Меню
00:00:00.000 : en:00:00:00.000
00:09:50.298 : en:00:09:50.298
00:15:42.650 : en:00:15:42.650
00:23:05.884 : en:00:23:05.884
00:31:23.048 : en:00:31:23.048
00:41:35.201 : en:00:41:35.201
00:50:30.694 : en:00:50:30.694
01:04:11.806 : en:01:04:11.806
01:13:37.705 : en:01:13:37.705
01:20:27.656 : en:01:20:27.656
01:34:05.849 : en:01:34:05.849
01:46:46.191 : en:01:46:46.191
01:53:17.332 : en:01:53:17.332
02:02:37.725 : en:02:02:37.725
02:14:08.874 : en:02:14:08.874
02:22:34.588 : en:02:22:34.588


Свернуть
Скриншоты

Изображение
Изображение
Изображение
Изображение
Изображение
Свернуть
_________________
Изображение
Изображение
Не в сети
Профиль  
 Добавлено: 2013-03-29 16:24 (спустя 43 минуты)
Стаж: 8 лет 1 месяц
Сообщений: 45
Спасибо огромное. Будем надеяться, что фильм на уровне "Повелителя бурь"
Не в сети
Профиль  
 Добавлено: 2013-04-10 21:59 (спустя 12 дней)
Аватара пользователя
Стаж: 8 лет
Сообщений: 140
Спасибок: 51
заценим
_________________
Изображение 6 мB/s Изображение 600 kB/s
Изображение
Не в сети
Профиль  
 Добавлено: 2014-01-13 17:36 (спустя 9 месяцев)
Аватара пользователя
Стаж: 8 лет 3 месяца
Возраст: 33
Сообщений: 319
Спасибок: 603
Лайков: 34
Спасибо, посмотрим. Только бы ещё скачать
Не в сети
Профиль  
Начать новую темуОтветить на тему  [ Сообщений: 4 ] 
Вы не можете начинать темы
Вы не можете отвечать на сообщения
Вы не можете редактировать свои сообщения
Вы не можете удалять свои сообщения