Правила форума

  • В этом разделе создание новых тем Запрещено.
  • Для создания новых тем пользуйтесь Корневым разделом DVD и HD фильмы.
Начать новую темуОтветить на тему  [ Сообщений: 4 ] 
Торрент файл
Размер: 14.82 GB • Зарегистрирован: 3 года 8 месяцев • Статус: Проверено
Скачан: 47 раз • Желающих скачать: 0 • Поблагодарили: 20 раз
 Раздают: 0  |  0 KB/s  ]   Качают: 0  |  0 KB/s  ] 
 Полного источника не было 1 год 1 месяц 
Сообщения
 Добавлено: 2013-03-16 20:31
Аватара пользователя
Стаж: 9 лет 1 месяц
Сообщений: 131
Спасибок: 2097
Лайков: 4
Цель Номер Один / Zero Dark Thirty

Изображение


Год выпуска: 2012
Страна: США (Columbia Pictures, Annapurna Pictures, First Light Production)
Жанр: боевик, триллер, драма, история
Продолжительность: 02:36:59
Перевод: Профессиональное (одноголосое) [Ю.Живов]
Субтитры: Russian, English

Режиссёр: Кэтрин Бигелоу
В ролях: Джессика Честейн, Джоэл Эдгертон, Эдгар Рамирез, Марк Стронг, Кайл Чандлер, Дженнифер Или, Джеймс Гандольфини, Стивен Диллэйн, Хэролд Перрино, Джейсон Кларк
Описание: История одной из операций спецслужб США по поимке «террориста N1» Усамы Бен Ладена.
Доп.информация: Сохранены оригинальные чаптеры, как на Blu-Ray


Качество: BDRip 1080p
Формат: MKV
Видео кодек: V_MPEG4/ISO/AVC
Аудио кодек: AC3 (Dolby Digital), DTS
Видео: 10.9 Мb/s, 1920x1040
Аудио #1: Russian: АС3, 640 Kb/s (6 ch)
Аудио #2: English: DTS, 1510 Kb/s (6 ch)
Аудио #3: English: АС3, 192 Kb/s (2 ch)
Субтитры: Russian, English
MediaInfo
Общее
Уникальный идентификатор : 180941195869306888293078090398980319749 (0x882001B90B32A1F98DC64803660B2A05)
Полное имя : D:\МОЯ\torrent\Zero.Dark.Thirty.(2012).BDRip1080p.mkv
Формат : Matroska
Версия формата : Version 4 / Version 2
Размер файла : 14,8 Гбайт
Продолжительность : 2 ч. 36 м.
Общий поток : 13,5 Мбит/сек
Дата кодирования : UTC 2013-03-15 10:44:18
Программа кодирования : mkvmerge v6.0.0 ('Coming Up For Air') built on Jan 20 2013 09:52:00
Библиотека кодирования : libebml v1.3.0 + libmatroska v1.4.0

Видео
Идентификатор : 1
Формат : AVC
Формат/Информация : Advanced Video Codec
Профиль формата : High@L4.1
Параметр CABAC формата : Да
Параметр ReFrames формата : 4 кадра
Идентификатор кодека : V_MPEG4/ISO/AVC
Продолжительность : 2 ч. 36 м.
Битрейт : 10,9 Мбит/сек
Ширина : 1920 пикселей
Высота : 1040 пикселей
Соотношение сторон : 1,85:1
Режим частоты кадров : Постоянный
Частота кадров : 23,976 кадра/сек
Цветовое пространство : YUV
Субдискретизация насыщенности : 4:2:0
Битовая глубина : 8 бит
Тип развёртки : Прогрессивная
Бит/(Пиксели*Кадры) : 0.228
Размер потока : 12,0 Гбайт (81%)
Библиотека кодирования : x264 core 129 r2245 bc13772
Настройки программы : cabac=1 / ref=4 / deblock=1:-3:-3 / analyse=0x3:0x113 / me=umh / subme=11 / psy=1 / psy_rd=1.05:0.00 / mixed_ref=1 / me_range=48 / chroma_me=1 / trellis=2 / 8x8dct=1 / cqm=0 / deadzone=21,11 / fast_pskip=0 / chroma_qp_offset=-2 / threads=12 / lookahead_threads=2 / sliced_threads=0 / nr=0 / decimate=1 / interlaced=0 / bluray_compat=0 / constrained_intra=0 / bframes=6 / b_pyramid=2 / b_adapt=2 / b_bias=0 / direct=3 / weightb=1 / open_gop=0 / weightp=2 / keyint=240 / keyint_min=22 / scenecut=40 / intra_refresh=0 / rc_lookahead=60 / rc=crf / mbtree=0 / crf=17.0 / qcomp=0.60 / qpmin=0 / qpmax=69 / qpstep=4 / vbv_maxrate=50000 / vbv_bufsize=62500 / crf_max=0.0 / nal_hrd=none / ip_ratio=1.40 / pb_ratio=1.30 / aq=2:0.90
Язык : English
Default : Да
Forced : Нет
Основные цвета : BT.709
Характеристики трансфера : BT.709
Коэффициенты матрицы : BT.709

Аудио #1
Идентификатор : 2
Формат : AC-3
Формат/Информация : Audio Coding 3
Расширение режима : CM (complete main)
Параметр Endianness формата : Big
Идентификатор кодека : A_AC3
Продолжительность : 2 ч. 36 м.
Вид битрейта : Постоянный
Битрейт : 640 Кбит/сек
Каналы : 6 каналов
Расположение каналов : Front: L C R, Side: L R, LFE
Частота : 48,0 КГц
Битовая глубина : 16 бит
Метод сжатия : С потерями
Размер потока : 719 Мбайт (5%)
Заголовок : RUS AVO (Zhivov)
Язык : Russian
Default : Нет
Forced : Нет

Аудио #2
Идентификатор : 3
Формат : DTS
Формат/Информация : Digital Theater Systems
Режим : 16
Параметр Endianness формата : Big
Идентификатор кодека : A_DTS
Продолжительность : 2 ч. 36 м.
Вид битрейта : Постоянный
Битрейт : 1509 Кбит/сек
Каналы : 6 каналов
Расположение каналов : Front: L C R, Side: L R, LFE
Частота : 48,0 КГц
Битовая глубина : 24 бит
Метод сжатия : С потерями
Размер потока : 1,65 Гбайт (11%)
Язык : English
Default : Да
Forced : Нет

Аудио #3
Идентификатор : 4
Формат : AC-3
Формат/Информация : Audio Coding 3
Профиль формата : Dolby Digital
Расширение режима : CM (complete main)
Параметр Endianness формата : Big
Идентификатор кодека : A_AC3
Продолжительность : 2 ч. 36 м.
Вид битрейта : Постоянный
Битрейт : 192 Кбит/сек
Каналы : 2 канала
Расположение каналов : Front: L R
Частота : 48,0 КГц
Битовая глубина : 16 бит
Метод сжатия : С потерями
Размер потока : 216 Мбайт (1%)
Заголовок : comments
Язык : English
Default : Нет
Forced : Нет

Текст #1
Идентификатор : 5
Формат : UTF-8
Идентификатор кодека : S_TEXT/UTF8
Идентификатор кодека/Информация : UTF-8 Plain Text
Язык : Russian
Default : Да
Forced : Нет

Текст #2
Идентификатор : 6
Формат : UTF-8
Идентификатор кодека : S_TEXT/UTF8
Идентификатор кодека/Информация : UTF-8 Plain Text
Язык : English
Default : Нет
Forced : Нет

Меню
00:00:00.000 : en:00:00:00.000
00:09:50.298 : en:00:09:50.298
00:15:42.650 : en:00:15:42.650
00:23:05.884 : en:00:23:05.884
00:31:23.048 : en:00:31:23.048
00:41:35.201 : en:00:41:35.201
00:50:30.694 : en:00:50:30.694
01:04:11.806 : en:01:04:11.806
01:13:37.705 : en:01:13:37.705
01:20:27.656 : en:01:20:27.656
01:34:05.849 : en:01:34:05.849
01:46:46.191 : en:01:46:46.191
01:53:17.332 : en:01:53:17.332
02:02:37.725 : en:02:02:37.725
02:14:08.874 : en:02:14:08.874
02:22:34.588 : en:02:22:34.588




Свернуть

Скриншоты
Изображение
Изображение
Изображение
Изображение
Свернуть


Последний раз редактировалось muaddip 2013-03-20 21:13, всего редактировалось 2 раз(а).
Не в сети
Профиль  
 Добавлено: 2013-03-19 20:17 (спустя 2 дня 23 часа)
Стаж: 5 лет 1 месяц
Сообщений: 9
А хде перевод??????
Не в сети
Профиль  
 Добавлено: 2013-03-20 16:45 (спустя 20 часов)
Аватара пользователя
Стаж: 9 лет 1 месяц
Сообщений: 131
Спасибок: 2097
Лайков: 4

Parashutt:

А хде перевод??????
Cкрытый текст
Аудио #1
Идентификатор : 2
Формат : AC-3
Формат/Информация : Audio Coding 3
Расширение режима : CM (complete main)
Параметр Endianness формата : Big
Идентификатор кодека : A_AC3
Продолжительность : 2 ч. 36 м.
Вид битрейта : Постоянный
Битрейт : 640 Кбит/сек
Каналы : 6 каналов
Расположение каналов : Front: L C R, Side: L R, LFE
Частота : 48,0 КГц
Битовая глубина : 16 бит
Метод сжатия : С потерями
Размер потока : 719 Мбайт (5%)
Заголовок : RUS AVO (Zhivov)
Язык : Russian
Default : Нет
Forced : Нет
Свернуть
Не в сети
Профиль  
 Добавлено: 2013-03-21 14:39 (спустя 21 час)
Аватара пользователя
Стаж: 6 лет 9 месяцев
Сообщений: 922
весьма нудный фильм про будни искателей суперзлодеев... но интересные моменты есть.
5.6 из 10.0
Не в сети
Профиль  
Начать новую темуОтветить на тему  [ Сообщений: 4 ] 
Вы не можете начинать темы
Вы не можете отвечать на сообщения
Вы не можете редактировать свои сообщения
Вы не можете удалять свои сообщения