Правила форума

  • В этом разделе создание новых тем Запрещено.
  • Для создания новых тем пользуйтесь Корневым разделом DVD и HD фильмы.
Начать новую темуОтветить на тему  [ Сообщений: 7 ] 
Торрент файл
Размер: 6.81 GB • Зарегистрирован: 5 лет 2 месяца • Статус: Проверено
Скачан: 105 раз • Желающих скачать: 0 • Поблагодарили: 15 раз
 Раздают: 0  |  0 KB/s  ]   Качают: 0  |  0 KB/s  ] 
 Полного источника не было 2 года 5 месяцев 
Сообщения
 Добавлено: 2011-09-29 19:27
Top-seeder
Аватара пользователя
Стаж: 9 лет
Сообщений: 1399
Спасибок: 28652
Лайков: 8
Цена страсти / The Ledge

Изображение


Информация о фильме:
Название: Цена страсти
Оригинальное название: The Ledge
Год выхода: 2011
Жанр: триллер, драма
Режиссер: Мэтью Чэпмен
В ролях: Патрик Уилсон, Лив Тайлер, Кристофер Горам, Чарли Ханнэм, Терренс Ховард, Жаклин Флеминг, Моника Акоста, Джиллиан Басерсон, Майк Пневски, Дин Дж. Уэст

О фильме:
После переезда в новую квартиру Шона нанимается на работу в отель. Ее начальником оказывается сосед по лестничной площадке Гэвин. Непростые отношения с фанатично верующим мужем и возникшая между Шоной и Гэвином тяга толкают их друг к другу. Двое мужчин кардинально противоположных взглядов впутываются в сложный любовный треугольник с прекрасной женщиной, обострившей их философское противостояние до смертельной схватки.

Выпущено: США / Film & Entertainment VIP Medienfonds 4 GmbH & Co. KG (I), Modern VideoFilm
Продолжительность: 01:40:49
Озвучивание: Дублированное [лицензия]

Файл:
Формат: MKV
Качество: BDRip 1080p [CHD]
Видео: 7767 kb/s, 1920x1080
Аудио: Russian: AC3, 384 kb/s (6 ch) / English: DTS, 1510 kb/s (6 ch)
Субтитры: Russian, English

MI
Общее
Уникальный идентификатор : 174953530828146967604640445009770735883 (0x839ED30B36159EAEB978003969DE690B)
Полное имя : D:\Закачки\Цена страсти.mkv
Формат : Matroska
Размер файла : 6,81 Гбайт
Продолжительность : 1 ч. 40 м.
Общий поток : 9664 Кбит/сек
Название фильма : Цена страсти / The Ledge (2011) .....:::UNIONGANG:::.....
Дата кодирования : UTC 2011-09-28 18:54:02
Программа кодирования : mkvmerge v5.0.0 ('Die Wahre Liebe') built on Sep 25 2011 20:33:49
Библиотека кодирования : libebml v1.2.2 + libmatroska v1.3.0

Видео
Идентификатор : 1
Формат : AVC
Формат/Информация : Advanced Video Codec
Профиль формата : High@L4.1
Параметр CABAC формата : Да
Параметр ReFrames формата : 4 кадра
Идентификатор кодека : V_MPEG4/ISO/AVC
Продолжительность : 1 ч. 40 м.
Битрейт : 7767 Кбит/сек
Ширина : 1920 пикс.
Высота : 1080 пикс.
Соотношение сторон : 16:9
Частота кадров : 23,976 кадр/сек
Цветовое пространство : YUV
Подвыборка цветности : 4:2:0
Битовая глубина : 8 бит
Тип развёртки : Прогрессивная
Бит/(Пиксели*Кадры) : 0.156
Размер потока : 5,34 Гбайт (78%)
Заголовок : The.Ledge.2011.1080p.BluRay.x264.DTS-CHD
Библиотека кодирования : x264 core 116 r2074 2641b9e
Настройки программы : cabac=1 / ref=4 / deblock=1:-3:-3 / analyse=0x3:0x113 / me=umh / subme=11 / psy=1 / psy_rd=1.10:0.15 / mixed_ref=1 / me_range=32 / chroma_me=1 / trellis=2 / 8x8dct=1 / cqm=2 / deadzone=21,11 / fast_pskip=0 / chroma_qp_offset=-2 / threads=12 / sliced_threads=0 / nr=0 / decimate=1 / interlaced=0 / bluray_compat=0 / constrained_intra=0 / bframes=6 / b_pyramid=2 / b_adapt=2 / b_bias=0 / direct=3 / weightb=1 / open_gop=0 / weightp=2 / keyint=250 / keyint_min=23 / scenecut=40 / intra_refresh=0 / rc_lookahead=60 / rc=2pass / mbtree=1 / bitrate=7767 / ratetol=1.0 / qcomp=0.60 / qpmin=1 / qpmax=63 / qpstep=4 / cplxblur=20.0 / qblur=0.5 / vbv_maxrate=40000 / vbv_bufsize=40000 / nal_hrd=none / ip_ratio=1.40 / aq=1:1.00
Язык : English

Аудио #1
Идентификатор : 2
Формат : AC-3
Формат/Информация : Audio Coding 3
Расширение режима : CM (complete main)
Идентификатор кодека : A_AC3
Продолжительность : 1 ч. 40 м.
Вид битрейта : Постоянный
Битрейт : 384 Кбит/сек
Каналы : 6 каналов
Расположение каналов : Front: L C R, Side: L R, LFE
Частота : 48,0 КГц
Битовая глубина : 16 бит
Метод сжатия : С потерями
Размер потока : 277 Мбайт (4%)
Заголовок : AC3 5.1 @ 384 kb/s [Russian DUB, R5]
Язык : Russian

Аудио #2
Идентификатор : 3
Формат : DTS
Формат/Информация : Digital Theater Systems
Идентификатор кодека : A_DTS
Продолжительность : 1 ч. 40 м.
Вид битрейта : Постоянный
Битрейт : 1510 Кбит/сек
Каналы : 6 каналов
Расположение каналов : Front: L C R, Side: L R, LFE
Частота : 48,0 КГц
Битовая глубина : 24 бит
Метод сжатия : С потерями
Размер потока : 1,06 Гбайт (16%)
Заголовок : DTS 5.1 @ 1510 kb/s [English]
Язык : English

Текст #1
Идентификатор : 4
Формат : UTF-8
Идентификатор кодека : S_TEXT/UTF8
Идентификатор кодека/Информация : UTF-8 Plain Text
Заголовок : Russian R5
Язык : Russian

Текст #2
Идентификатор : 5
Формат : UTF-8
Идентификатор кодека : S_TEXT/UTF8
Идентификатор кодека/Информация : UTF-8 Plain Text
Заголовок : English
Язык : English

Свернуть
Скриншоты
ИзображениеИзображениеИзображение
Свернуть
Не в сети
Профиль  
 Добавлено: 2011-09-30 09:59 (спустя 14 часов)
Кинокомментатор
Аватара пользователя
Стаж: 9 лет 1 месяц
Сообщений: 1332
Лайков: 54
скукатища да?)
_________________
Я ВКонтакте
Не в сети
Профиль  
 Добавлено: 2011-10-07 18:11 (спустя 7 дней)
Аватара пользователя
Стаж: 8 лет 11 месяцев
Сообщений: 762
Спасибок: 1548

Bronks:

Цена страсти / The Ledge
Оценки неплохие http://www.kinopoisk.ru/level/1/film/484621/
Не в сети
Профиль  
 Добавлено: 2011-10-07 20:39 (спустя 2 часа 28 минут)
Аватара пользователя
Стаж: 8 лет 6 месяцев
Сообщений: 465
Спасибок: 27
Лайков: 6

Tornado77:

Bronks:

Цена страсти / The Ledge
Оценки неплохие http://www.kinopoisk.ru/level/1/film/484621/
Ага, бюджет 10 млн., а сборы в США 7 штук всего. :hi_hi_hi: Даже жалко тех, кто снимал.
Не в сети
Профиль  
 Добавлено: 2011-10-09 10:49 (спустя 1 день 14 часов)
Top-seeder
Аватара пользователя
Стаж: 7 лет 11 месяцев
Сообщений: 170
Спасибок: 1379
Лайков: 1
Панчо
Тогда смотри Трансформеры.....
Не в сети
Профиль  
 Добавлено: 2013-01-19 13:12 (спустя 1 год 3 месяца)
Аватара пользователя
Стаж: 8 лет 5 месяцев
Возраст: 39
Сообщений: 46

Шнурок:

Панчо
Тогда смотри Трансформеры.....
+1000

ещё не смотрел, но трейлеры и фрагменты говорят сами за себя. Качаю.
После просмотра отпишусь
Не в сети
Профиль  
 Добавлено: 2013-01-20 11:38 (спустя 22 часа)
Аватара пользователя
Стаж: 8 лет 5 месяцев
Возраст: 39
Сообщений: 46

Панчо:

Tornado77:

Bronks:

Цена страсти / The Ledge
Оценки неплохие http://www.kinopoisk.ru/level/1/film/484621/
Ага, бюджет 10 млн., а сборы в США 7 штук всего. :hi_hi_hi: Даже жалко тех, кто снимал.

Фильм великолепный. И финал правильный, хоть и жаль, что без happy end'a
А сборы предсказуемы, т.к. американское общество глубоко религиозно и (смею предположить) в большей массе тупое быдло. Им лучше подавать Трансформеры, Люди Х, Люди в черном, Железный человек и т.п.
К сожалению, наше российское общество становится таким же.

Последний раз получал такое удольствие только от фильмов Эксперимент (1 и 2 части)

Скачал с другого трекера, здесь скачаю и буду стоять на раздаче для поддержания
Не в сети
Профиль  
Начать новую темуОтветить на тему  [ Сообщений: 7 ] 
Вы не можете начинать темы
Вы не можете отвечать на сообщения
Вы не можете редактировать свои сообщения
Вы не можете удалять свои сообщения