Правила форума

  • В этом разделе создание новых тем Запрещено.
  • Для создания новых тем пользуйтесь Корневым разделом DVD и HD фильмы.
Начать новую темуОтветить на тему  [ Сообщений: 3 ] 
Торрент файл
Размер: 4.69 GB • Зарегистрирован: 4 года 5 месяцев • Статус: Проверено
Скачан: 79 раз • Желающих скачать: 0 • Поблагодарили: 23 раза
 Раздают: 0  |  0 KB/s  ]   Качают: 0  |  0 KB/s  ] 
 Полного источника не было 3 часа 
Сообщения
 Добавлено: 2012-06-11 09:16
Top-releaser
Аватара пользователя
Стаж: 6 лет 7 месяцев
Сообщений: 2078
Спасибок: 3229
Лайков: 9
Час расплаты / Paycheck

«Ему заплатили чтобы он забыл прошлое, от которого зависит будущее.»

Изображение


Год выпуска: 2003
Страна: США
Жанр: триллер, фантастика, мистика
Продолжительность: 01:58:00
Перевод: Профессиональный (полное дублирование)

Режиссёр: Джон Ву
В ролях: Бен Аффлек, Ума Турман, Колм Фиори, Ивана Милишевич, Пол Джаматти, Джо Мортон, Джон Кассини, Аарон Экхарт, Фульвио Чечере, Коллэм Кит Ренни, Кэтрин Моррис, Клодетт Минк, Питер Фридмэн, Мишель Харрисон, Майкл С. Холл, Кристофер Кеннеди, Райан Цвик
Описание: Майкл Дженнингс - выдающийся компьютерный инженер-виртоуз, работающий над строго засекреченными мега-проектами. После успешного выполнения работы Майклу на специальном устройстве стирают часть памяти, дабы он не смог вспомнить никаких подробностей. Последнее дело Дженнингса - контракт на три года от старого друга, по завершении которого герой должен получить чек на "скромную" восьмизначную сумму. Какого же было удивление инженера, когда он, придя в себя после "стирания" памяти, не обнаружил заветного чека, но нашел конверт со странными предметами, которые он послал себе сам. Эти предметы - ключи к "стертому" прошлому Дженнингса, где скрывается страшная тайна!

Раздача группы: Изображение

Качество: BDRip
Формат: MKV
Видео кодек: H.264
Аудио кодек: AC3 (Dolby Digital)
Видео: 1280x544, 23.976 fps, x264, 4628 kbps
Аудио #1: Russian: AC3 5.1, 384 kbps
Аудио #2: English: AC3 5.1, 640 kbps
Субтитры: Русские

MediaInfo
Общее
Уникальный идентификатор : 199164218132774485158366885764524819204 (0x95D5A21676313869B2D9B297AE7E4304)
Полное имя : I:\Час расплаты\Paycheck[R.G.Daredevil].mkv
Формат : Matroska
Версия формата : Version 2
Размер файла : 4,69 Гбайт
Продолжительность : 1 ч. 58 м.
Общий поток : 5654 Кбит/сек
Дата кодирования : UTC 2009-05-08 17:43:02
Программа кодирования : mkvmerge v2.7.0 ('Do It Again') built on Apr 15 2009 00:27:10
Библиотека кодирования : libebml v0.7.7 + libmatroska v0.8.1

Видео
Идентификатор : 1
Формат : AVC
Формат/Информация : Advanced Video Codec
Профиль формата : High@L4.1
Параметр CABAC формата : Да
Параметр ReFrames формата : 5 кадров
Идентификатор кодека : V_MPEG4/ISO/AVC
Продолжительность : 1 ч. 58 м.
Битрейт : 4628 Кбит/сек
Ширина : 1280 пикселей
Высота : 544 пикселя
Соотношение сторон : 2,35:1
Частота кадров : 23,976 кадра/сек
Цветовое пространство : YUV
Субдискретизация насыщенности : 4:2:0
Битовая глубина : 8 бит
Тип развёртки : Прогрессивная
Бит/(Пиксели*Кадры) : 0.277
Размер потока : 3,75 Гбайт (80%)
Библиотека кодирования : x264 core 67 r1145M d2e1e1c
Настройки программы : cabac=1 / ref=5 / deblock=1:0:0 / analyse=0x3:0x133 / me=umh / subme=7 / psy_rd=1.0:0.0 / mixed_ref=1 / me_range=16 / chroma_me=1 / trellis=1 / 8x8dct=1 / cqm=0 / deadzone=21,11 / chroma_qp_offset=-2 / threads=6 / nr=0 / decimate=1 / mbaff=0 / bframes=3 / b_pyramid=1 / b_adapt=1 / b_bias=0 / direct=1 / wpredb=1 / keyint=250 / keyint_min=25 / scenecut=40 / rc=2pass / bitrate=4628 / ratetol=1.0 / qcomp=0.60 / qpmin=10 / qpmax=51 / qpstep=4 / cplxblur=20.0 / qblur=0.5 / ip_ratio=1.40 / pb_ratio=1.30 / aq=1:1.00
Язык : English
Default : Да
Forced : Нет

Аудио #1
Идентификатор : 2
Формат : AC-3
Формат/Информация : Audio Coding 3
Расширение режима : CM (complete main)
Параметр Endianness формата : Big
Идентификатор кодека : A_AC3
Продолжительность : 1 ч. 58 м.
Вид битрейта : Постоянный
Битрейт : 384 Кбит/сек
Каналы : 6 каналов
Расположение каналов : Front: L C R, Side: L R, LFE
Частота : 48,0 КГц
Битовая глубина : 16 бит
Метод сжатия : С потерями
Размер потока : 326 Мбайт (7%)
Заголовок : AC3 5.1, 384 kbps
Язык : Russian
Default : Да
Forced : Нет

Аудио #2
Идентификатор : 3
Формат : AC-3
Формат/Информация : Audio Coding 3
Расширение режима : CM (complete main)
Параметр Endianness формата : Big
Идентификатор кодека : A_AC3
Продолжительность : 1 ч. 58 м.
Вид битрейта : Постоянный
Битрейт : 640 Кбит/сек
Каналы : 6 каналов
Расположение каналов : Front: L C R, Side: L R, LFE
Частота : 48,0 КГц
Битовая глубина : 16 бит
Метод сжатия : С потерями
Размер потока : 544 Мбайт (11%)
Заголовок : AC3 5.1, 640 kbps
Язык : English
Default : Нет
Forced : Нет

Текст #1
Идентификатор : 4
Формат : UTF-8
Идентификатор кодека : S_TEXT/UTF8
Идентификатор кодека/Информация : UTF-8 Plain Text
Язык : Russian
Default : Да
Forced : Нет

Текст #2
Идентификатор : 5
Формат : UTF-8
Идентификатор кодека : S_TEXT/UTF8
Идентификатор кодека/Информация : UTF-8 Plain Text
Default : Нет
Forced : Нет
Свернуть
Скриншоты
Изображение

Изображение

Изображение

Изображение
Свернуть
Не в сети
Профиль  
 Добавлено: 2012-06-11 09:20 (спустя 3 минуты)
Аватара пользователя
Стаж: 8 лет 3 месяца
Возраст: 43
Сообщений: 3290
Спасибок: 21012
Лайков: 3
шикарный фильлм :co_ol:
_________________
Изображение
Не в сети
Профиль  
 Добавлено: 2012-06-11 09:22 (спустя 2 минуты)
Top-releaser
Аватара пользователя
Стаж: 6 лет 7 месяцев
Сообщений: 2078
Спасибок: 3229
Лайков: 9
Иванишко
а то :-D
Не в сети
Профиль  
Начать новую темуОтветить на тему  [ Сообщений: 3 ] 
Вы не можете начинать темы
Вы не можете отвечать на сообщения
Вы не можете редактировать свои сообщения
Вы не можете удалять свои сообщения