Правила форума

  • В этом разделе создание новых тем Запрещено.
  • Для создания новых тем пользуйтесь Корневым разделом DVD и HD фильмы.
Начать новую темуОтветить на тему  [ 1 сообщение ] 
Торрент файл
Размер: 4.71 GB • Зарегистрирован: 4 года 2 месяца • Статус: Проверено
Скачан: 34 раза • Желающих скачать: 0 • Поблагодарили: 9 раз
 Раздают: 0  |  0 KB/s  ]   Качают: 0  |  0 KB/s  ] 
 Полного источника не было 3 года 2 месяца 
Сообщения
 Добавлено: 2012-09-12 18:58
DVD Release Group
Аватара пользователя
Стаж: 7 лет 1 месяц
Сообщений: 3569
Спасибок: 247741
Лайков: 1020
Чего ждать, когда ждешь ребенка

What to Expect When You're Expecting

«Зачато по бестселлеру»


Изображение


Год выпуска: 2012
Страна: США / Phoenix Pictures, Alcon Entertainment, Lionsgate
Жанр: Драма, мелодрама, комедия
Продолжительность: 01:49:50
Перевод: Профессиональный (полное дублирование)
Субтитры: Русские, английские
Режиссер: Кирк Джонс
В ролях: Кэмерон Диаз, Дженнифер Лопез, Элизабет Бэнкс, Чейс Кроуфорд, Бруклин Декер, Анна Кендрик, Мэттью Моррисон, Деннис Куэйд, Венди МакЛендон-Кови, Родриго Санторо
Описание: Фильм расскажет историю пяти пар, которым предстоят все радости процесса ожидания и рождения ребенка. Главная героиня 42-летняя адептка системы похудания по Джиллиан Майклз, которая ведет собственное шоу по сбросу веса и фитнесу. По сюжету героиня выясняет, что, несмотря на возраст, она ждет ребенка.
Кинопоиск: 6.4 (1074)
IMDb: 5.4 (9783)
Дополнительно: Сохранены оригинальные чаптеры как на Blu-Ray.
Качество: BDRip 720p
Формат: MKV
Видео кодек: H.264
Аудио кодек: DTS
Видео: 1280x534 23.98fps 3725kbps
Аудио:
Audio Rus: 48kHz 6ch 755kbps
Audio Eng: 48kHz 6ch 1510kbps

"MediaInfo"
Формат : Matroska
Версия формата : Version 2
Размер файла : 4,71 Гбайт
Продолжительность : 1 ч. 50 м.
Общий поток : 6111 Кбит/сек
Название фильма : Чего ждать, когда ждешь ребенка
Дата кодирования : UTC 2012-09-12 13:11:22
Программа кодирования : mkvmerge v4.9.1 ('Ich will') сборка от Jul 11 2011 23:53:15
Библиотека кодирования : libebml v1.2.1 + libmatroska v1.1.1

Видео
Идентификатор : 1
Формат : AVC
Формат/Информация : Advanced Video Codec
Профиль формата : High@L4.1
Параметр CABAC формата : Да
Параметр ReFrames формата : 12 кадров
Идентификатор кодека : V_MPEG4/ISO/AVC
Продолжительность : 1 ч. 50 м.
Битрейт : 3725 Кбит/сек
Ширина : 1280 пикселей
Высота : 534 пикселя
Соотношение сторон : 2,40:1
Частота кадров : 23,976 кадра/сек
Цветовое пространство : YUV
Субдискретизация насыщенности : 4:2:0
Битовая глубина : 8 бит
Тип развёртки : Прогрессивная
Бит/(Пиксели*Кадры) : 0.227
Размер потока : 2,87 Гбайт (61%)
Заголовок : What to Expect When You're Expecting 2012 720p Bluray x264-EbP
Библиотека кодирования : x264 core 125 r2208 d9d2288
Настройки программы : cabac=1 / ref=12 / deblock=1:-3:-3 / analyse=0x3:0x113 / me=tesa / subme=9 / psy=1 / psy_rd=1.00:0.00 / mixed_ref=1 / me_range=24 / chroma_me=1 / trellis=2 / 8x8dct=1 / cqm=0 / deadzone=21,11 / fast_pskip=0 / chroma_qp_offset=-2 / threads=12 / lookahead_threads=2 / sliced_threads=0 / nr=0 / decimate=0 / interlaced=0 / bluray_compat=0 / constrained_intra=0 / bframes=6 / b_pyramid=2 / b_adapt=2 / b_bias=0 / direct=3 / weightb=1 / open_gop=0 / weightp=2 / keyint=250 / keyint_min=23 / scenecut=40 / intra_refresh=0 / rc=crf / mbtree=0 / crf=16.8 / qcomp=0.60 / qpmin=0 / qpmax=69 / qpstep=4 / ip_ratio=1.40 / pb_ratio=1.30 / aq=1:0.70
Язык : English
Коэффициенты матрицы : BT.709-5, BT.1361, IEC 61966-2-4 709, SMPTE RP177

Аудио #1
Идентификатор : 2
Формат : DTS
Формат/Информация : Digital Theater Systems
Идентификатор кодека : A_DTS
Продолжительность : 1 ч. 50 м.
Вид битрейта : Постоянный
Битрейт : 755 Кбит/сек
Каналы : 6 каналов
Расположение каналов : Front: L C R, Side: L R, LFE
Частота : 48,0 КГц
Битовая глубина : 24 бит
Метод сжатия : С потерями
Размер потока : 595 Мбайт (12%)
Заголовок : DTS 5.1 @ 768 kbps - Dub, R5
Язык : Russian

Аудио #2
Идентификатор : 3
Формат : DTS
Формат/Информация : Digital Theater Systems
Идентификатор кодека : A_DTS
Продолжительность : 1 ч. 50 м.
Вид битрейта : Постоянный
Битрейт : 1510 Кбит/сек
Каналы : 6 каналов
Расположение каналов : Front: L C R, Side: L R, LFE
Частота : 48,0 КГц
Битовая глубина : 24 бит
Метод сжатия : С потерями
Размер потока : 1,16 Гбайт (25%)
Заголовок : DTS 5.1 @ 1536 kbps
Язык : English

Текст #1
Идентификатор : 4
Формат : UTF-8
Идентификатор кодека : S_TEXT/UTF8
Идентификатор кодека/Информация : UTF-8 Plain Text
Язык : Russian

Текст #2
Идентификатор : 5
Формат : UTF-8
Идентификатор кодека : S_TEXT/UTF8
Идентификатор кодека/Информация : UTF-8 Plain Text
Язык : English

Текст #3
Идентификатор : 6
Формат : UTF-8
Идентификатор кодека : S_TEXT/UTF8
Идентификатор кодека/Информация : UTF-8 Plain Text
Заголовок : SDH
Язык : English

Меню
00:00:00.000 : en:00:00:00.000
00:06:29.097 : en:00:06:29.097
00:14:04.719 : en:00:14:04.719
00:20:01.575 : en:00:20:01.575
00:28:09.938 : en:00:28:09.938
00:36:39.280 : en:00:36:39.280
00:42:06.899 : en:00:42:06.899
00:48:34.829 : en:00:48:34.829
00:58:37.597 : en:00:58:37.597
01:06:46.377 : en:01:06:46.377
01:10:58.921 : en:01:10:58.921
01:19:40.317 : en:01:19:40.317
01:25:03.015 : en:01:25:03.015
01:30:24.878 : en:01:30:24.878
01:35:17.045 : en:01:35:17.045
01:43:52.685 : en:01:43:52.685
Свернуть

"Скриншоты"
Изображение
Изображение
Изображение
Свернуть

Раздача группы:
Изображение
Не в сети
Профиль  
Начать новую темуОтветить на тему  [ 1 сообщение ] 
Вы не можете начинать темы
Вы не можете отвечать на сообщения
Вы не можете редактировать свои сообщения
Вы не можете удалять свои сообщения