Правила форума

  • В этом разделе создание новых тем Запрещено.
  • Для создания новых тем пользуйтесь Корневым разделом DVD и HD фильмы.
Начать новую темуОтветить на тему  [ Сообщений: 2 ] 
Торрент файл
Размер: 10.19 GB • Зарегистрирован: 4 года 2 месяца • Статус: Проверено
Скачан: 138 раз • Желающих скачать: 0 • Поблагодарили: 21 раз
 Раздают: 0  |  0 KB/s  ]   Качают: 0  |  0 KB/s  ] 
 Полного источника не было 24 дня 
Сообщения
 Добавлено: 2012-09-12 22:25
Модератор
Аватара пользователя
Стаж: 6 лет 10 месяцев
Возраст: 33
Сообщений: 5908
Спасибок: 61250
Лайков: 3540
Изображение

Чего ждать, когда ждешь ребенка
What to Expect When You're Expecting


Год выпуска: 2012
Страна: США
Слоган: «Зачато по бестселлеру»
Жанр: драма, мелодрама, комедия
Продолжительность: 01:50:19
Перевод: Профессиональный (полное дублирование) Лицензия
Режиссер: Кирк Джонс
Сценарий: Шона Кросс, Хезер Хэч, Хайди Мёркофф
Продюсер: Дэвид Туэйтес, Майк Медавой, Арнольд Мессер, Марк Бакши, Ли Кларк
Оператор: Ксавьер Перес Гробет
Композитор: Марк Мазерсбо
В ролях: Кэмерон Диаз, Дженнифер Лопез, Элизабет Бэнкс, Чейс Кроуфорд, Бруклин Декер, Анна Кендрик, Мэттью Моррисон, Деннис Куэйд, Венди МакЛендон-Кови, Родриго Санторо, Бен Фэлкуон, Крис Рок
Бюджет: $40 000 000
Сборы в США: $41 152 203
Сборы в России: $1 349 385
Сборы в мире: $79 653 720
Мировая премьера: 17 мая 2012
Релиз на DVD: 11 сентября 2012, «West Video»
Релиз на Blu-ray: 11 сентября 2012, «West Video»
Описание: Фильм расскажет историю пяти пар, которым предстоят все радости процесса ожидания и рождения ребенка. Главная героиня 42-летняя адептка системы похудания по Джиллиан Майклз, которая ведет собственное шоу по сбросу веса и фитнесу. По сюжету героиня выясняет, что, несмотря на возраст, она ждет ребенка.

Изображение User Rating: 6.409 (1 098)
Изображение User Rating: 5.40 (9 783)
MPAA: PG-13 - Детям до 13 лет просмотр не желателен
Раздача группы: Изображение
Изображение
Качество: BDRip, 1080p
Формат: Matroska
Видео: AVC; 1920x800 (2.40:1); 10696 Kbps; 23,976 fps; 0,290 bit/pixel
Аудио №1: Russian; DTS; 754 Kbps; CBR; 6 ch; 24 bit
Аудио №2: DTS; 1509 Kbps; CBR; 6 ch; 24 bit
Оригинал
Субтитры №1: Russian
Субтитры №2:

mediainfo
General
Complete name : Chego.jdat.kogda.jdesh.rebenka.x264.2012.D.BDRip.1080p.mkv
Format : Matroska
Format version : Version 2
File size : 10.2 GiB
Duration : 1h 50mn
Overall bit rate : 13.2 Mbps
Movie name : Respector
Encoded date : UTC 2012-09-12 16:03:40
Writing application : mkvmerge v5.5.0 ('Healer') built on Apr 24 2012 23:47:03
Writing library : libebml v1.2.3 + libmatroska v1.3.0

Video
ID : 1
Format : AVC
Format/Info : Advanced Video Codec
Format profile : High@L4.1
Format settings, CABAC : Yes
Format settings, ReFrames : 5 frames
Codec ID : V_MPEG4/ISO/AVC
Duration : 1h 50mn
Bit rate : 11.0 Mbps
Width : 1 920 pixels
Height : 800 pixels
Display aspect ratio : 2.40:1
Frame rate : 23.976 fps
Color space : YUV
Chroma subsampling : 4:2:0
Bit depth : 8 bits
Scan type : Progressive
Bits/(Pixel*Frame) : 0.299
Stream size : 8.24 GiB (81%)
Writing library : x264 core 125 r2208 d9d2288
Encoding settings : cabac=1 / ref=5 / deblock=1:-3:-3 / analyse=0x3:0x113 / me=umh / subme=10 / psy=1 / psy_rd=1.05:0.00 / mixed_ref=1 / me_range=48 / chroma_me=1 / trellis=2 / 8x8dct=1 / cqm=0 / deadzone=21,11 / fast_pskip=0 / chroma_qp_offset=-2 / threads=18 / lookahead_threads=3 / sliced_threads=0 / nr=0 / decimate=0 / interlaced=0 / bluray_compat=0 / constrained_intra=0 / bframes=7 / b_pyramid=2 / b_adapt=2 / b_bias=0 / direct=3 / weightb=1 / open_gop=0 / weightp=2 / keyint=240 / keyint_min=24 / scenecut=40 / intra_refresh=0 / rc_lookahead=120 / rc=2pass / mbtree=1 / bitrate=11000 / ratetol=1.0 / qcomp=0.70 / qpmin=0 / qpmax=69 / qpstep=4 / cplxblur=20.0 / qblur=0.5 / ip_ratio=1.40 / aq=1:0.80
Language : English
Default : Yes
Forced : No

Audio #1
ID : 2
Format : DTS
Format/Info : Digital Theater Systems
Codec ID : A_DTS
Duration : 1h 50mn
Bit rate mode : Constant
Bit rate : 755 Kbps
Channel(s) : 6 channels
Channel positions : Front: L C R, Side: L R, LFE
Sampling rate : 48.0 KHz
Bit depth : 24 bits
Compression mode : Lossy
Stream size : 595 MiB (6%)
Language : Russian
Default : Yes
Forced : Yes

Audio #2
ID : 3
Format : DTS
Format/Info : Digital Theater Systems
Codec ID : A_DTS
Duration : 1h 50mn
Bit rate mode : Constant
Bit rate : 1 510 Kbps
Channel(s) : 6 channels
Channel positions : Front: L C R, Side: L R, LFE
Sampling rate : 48.0 KHz
Bit depth : 24 bits
Compression mode : Lossy
Stream size : 1.16 GiB (11%)
Language : English
Default : No
Forced : No

Text #1
ID : 4
Format : UTF-8
Codec ID : S_TEXT/UTF8
Codec ID/Info : UTF-8 Plain Text
Language : Russian
Default : Yes
Forced : No

Text #2
ID : 5
Format : PGS
Muxing mode : zlib
Codec ID : S_HDMV/PGS
Codec ID/Info : The same subtitle format used on BDs/HD-DVDs
Language : English
Default : No
Forced : No

Menu
00:00:00.000 : en:00:00:00.000
00:06:29.097 : en:00:06:29.097
00:14:04.719 : en:00:14:04.719
00:20:01.575 : en:00:20:01.575
00:28:09.938 : en:00:28:09.938
00:36:39.280 : en:00:36:39.280
00:42:06.899 : en:00:42:06.899
00:48:34.829 : en:00:48:34.829
00:58:37.597 : en:00:58:37.597
01:06:46.377 : en:01:06:46.377
01:10:58.921 : en:01:10:58.921
01:19:40.317 : en:01:19:40.317
01:25:03.015 : en:01:25:03.015
01:30:24.878 : en:01:30:24.878
01:35:17.045 : en:01:35:17.045
01:43:52.685 : en:01:43:52.685
Свернуть
"Знаете ли Вы, что..."
  • Кристен Уиг предлагали роль в фильме, но она отказалась из-за несостыковок по графику с её участием в телевизионным шоу «Saturday Night Live».
  • В основе фильма лежит одноимённая популярная серия пособий для беременных, к 2011 году распроданная в количестве более 14,5 миллиона книг.
Свернуть
Скриншоты

Изображение
Изображение
Изображение
Изображение
Свернуть
_________________
ИзображениеИзображение Изображение
Изображение
 tany1984 и di-ys1 нравится это.
Не в сети
Профиль  
 Добавлено: 2012-09-18 21:38 (спустя 5 дней)
Аватара пользователя
Стаж: 7 лет 2 месяца
Возраст: 24
Сообщений: 18
Спасибок: 45
Скорости плизззз
Не в сети
Профиль  
Начать новую темуОтветить на тему  [ Сообщений: 2 ] 
Вы не можете начинать темы
Вы не можете отвечать на сообщения
Вы не можете редактировать свои сообщения
Вы не можете удалять свои сообщения