Правила форума

  • В этом разделе создание новых тем Запрещено.
  • Для создания новых тем пользуйтесь Корневым разделом DVD и HD фильмы.
Начать новую темуОтветить на тему  [ 1 сообщение ] 
Торрент файл
Размер: 23.16 GB • Зарегистрирован: 4 года 2 месяца • Статус: Проверено
Скачан: 14 раз • Желающих скачать: 0 • Поблагодарили: 2 раза
 Раздают: 0  |  0 KB/s  ]   Качают: 0  |  0 KB/s  ] 
 Полного источника не было 2 года 1 месяц 
Сообщения
 Добавлено: 2012-09-20 14:10
Аватара пользователя
Стаж: 8 лет 1 месяц
Возраст: 27
Сообщений: 176
Спасибок: 968
Лайков: 1
Чего ждать, когда ждешь ребенка / What to Expect When You're Expecting

Изображение

Изображение


Год выпуска: 2012
Страна: США Изображение (Alcon Entertainment)
Слоган: «Зачато по бестселлеру»
Жанр: драма, мелодрама, комедия
Продолжительность: 01:49:50
Перевод: Профессиональный | Лицензия

Режиссёр: Кирк Джонс
Сценарист: Шона Кросс, Хезер Хэч, Хайди Мёркофф
Продюсер: Дэвид Туэйтес, Майк Медавой, Арнольд Мессер
Оператор: Ксавьер Перес Гробет
Композитор: Марк Мазерсбо
В ролях: Кэмерон Диаз, Дженнифер Лопес, Элизабет Бэнкс, Чейс Кроуфорд, Бруклин Декер, Анна Кендрик, Мэттью Моррисон, Деннис Куэйд, Венди МакЛендон-Кови, Родриго Санторо, Бен Фэлкуон, Крис Рок, Джо Манганьелло, Роб Хюбел, Томас Леннон, Амир Талай, Ребел Уилсон, Дуэйн Уэйд, Уитни Порт, Меган Маллалли, Шерил Коул, Кит Диорио, Табу, Ким Филдс, Джесси Берч, Дженезис Родригес, Том Кларк
Описание: Фильм расскажет историю пяти пар, которым предстоят все радости процесса ожидания и рождения ребенка. Главная героиня 42-летняя адептка системы похудания по Джиллиан Майклз, которая ведет собственное шоу по сбросу веса и фитнесу. По сюжету героиня выясняет, что, несмотря на возраст, она ждет ребенка.

Релиз группы: Изображение
Рейтинг MPAA: Рейтинг PG-13 (Дети до 13 лет допускаются на фильм только с родителями)
Мировая премьера: 17 мая 2012
Премьера в России: 17 мая 2012, «West»
Бюджет: $40 000 000
Кассовые сборы: $79 653 720
Изображение 6.361 (2 583)
Изображение 5.40 (11 800)

Кодек: x264
Качество: Blu-Ray (1080p)
Видео: MPEG-4 AVC, 16.9 Мбит/с, 1920x1080, 23.976 кадр/с
Звук: Русский (DTS, 6 ch, 768 Кбит/с)
Скриншоты
Изображение
Изображение
Изображение
Изображение
Изображение
Свернуть
Знаете ли Вы, что...
*Кристен Уиг предлагали роль в фильме, но она отказалась из-за несостыковок по графику с её участием в телевизионным шоу «Saturday Night Live».
*В основе фильма лежит одноимённая популярная серия пособий для беременных, к 2011 году распроданная в количестве более 14,5 миллиона книг.
Свернуть
MI
Общее
Уникальный идентификатор : 215293148495526034037768385043056472129 (0xA1F7F3C029372C659D67B0B34ECEB041)
Полное имя : E:ЗагрузкиWhat.to.Expect.When.You're.Expecting.2012.x264.BDRip.1080p.DUB.mkv
Формат : Matroska
Версия формата : Version 2
Размер файла : 23.16 GB
Продолжительность : 1 ч. 49 м.
Общий поток : 5692 Кбит/сек
Дата кодирования : UTC 2012-09-13 17:21:16
Программа кодирования : mkvmerge v5.5.0 ('Healer') built on Apr 6 2012 21:43:24
Библиотека кодирования : libebml v1.2.3 + libmatroska v1.3.0

Видео
Идентификатор : 1
Формат : AVC
Формат/Информация : Advanced Video Codec
Профиль формата : High@L4.0
Параметр CABAC формата : Да
Параметр ReFrames формата : 4 кадра
Идентификатор кодека : V_MPEG4/ISO/AVC
Продолжительность : 1 ч. 49 м.
Битрейт : 16900 Кбит/сек
Ширина : 1920 пикселей
Высота : 1080 пикселей
Соотношение сторон : 2,40:1
Частота кадров : 23,976 кадра/сек
Цветовое пространство : YUV
Субдискретизация насыщенности : 4:2:0
Битовая глубина : 8 бит
Тип развёртки : Прогрессивная
Бит/(Пиксели*Кадры) : 0.144
Размер потока : 3,99 Гбайт (91%)
Заголовок : Чего ждать, когда ждешь ребенка
Библиотека кодирования : x264 core 125 r2208 d9d2288
Настройки программы : cabac=1 / ref=3 / deblock=1:0:0 / analyse=0x3:0x133 / me=hex / subme=7 / psy=1 / psy_rd=1.00:0.00 / mixed_ref=1 / me_range=16 / chroma_me=1 / trellis=1 / 8x8dct=1 / cqm=0 / deadzone=21,11 / fast_pskip=1 / chroma_qp_offset=-2 / threads=12 / lookahead_threads=2 / sliced_threads=0 / nr=0 / decimate=1 / interlaced=0 / bluray_compat=0 / constrained_intra=0 / bframes=3 / b_pyramid=2 / b_adapt=1 / b_bias=0 / direct=1 / weightb=1 / open_gop=0 / weightp=2 / keyint=240 / keyint_min=23 / scenecut=40 / intra_refresh=0 / rc_lookahead=40 / rc=2pass / mbtree=1 / bitrate=5308 / ratetol=1.0 / qcomp=0.60 / qpmin=0 / qpmax=69 / qpstep=4 / cplxblur=20.0 / qblur=0.5 / ip_ratio=1.40 / aq=1:1.00
Язык : English
Default : Да
Forced : Нет

Аудио
Идентификатор : 2
Формат : AC-3
Формат/Информация : Audio Coding 3
Расширение режима : CM (complete main)
Идентификатор кодека : A_AC3
Продолжительность : 1 ч. 49 м.
Вид битрейта : Постоянный
Битрейт : 768 Кбит/сек
Каналы : 6 каналов
Расположение каналов : Front: L C R, Side: L R, LFE
Частота : 48,0 КГц
Битовая глубина : 16 бит
Метод сжатия : С потерями
Размер потока : 302 Мбайт (7%)
Заголовок : Дублированный
Язык : Russian
Default : Да
Forced : Нет
Свернуть
Дополнительное на диске
• Чего ждать и "Библия для беременных" (переведено проф. многоголосой аудио озвучкой);
• Отвязные чуваки (переведено проф. многоголосой аудио озвучкой);
• Удаленные сцены (переведено проф. многоголосой аудио озвучкой);
• Трейлеры.
Свернуть

Не в сети
Профиль  
Начать новую темуОтветить на тему  [ 1 сообщение ] 
Вы не можете начинать темы
Вы не можете отвечать на сообщения
Вы не можете редактировать свои сообщения
Вы не можете удалять свои сообщения